[ Сегодня идет свободное скачивание без начисления Download ]


Статистика раздачи
Нет
 
   
 
Top  
 
 
-Джек Ричер / Jack Reacher (2012) BDRemux-«У закона есть пределы. У него их нет»- Русское название: Джек Ричер
Оригинальное название: Jack Reacher
Год выпуска: 2012
Производство: США / Mutual Film Company, Paramount Pictures, Skydance Productions
Жанр: Боевик, Триллер, Криминал
Перевод: Дублированный (Чистый звук)
Субтитры: Вшитые отключаемые
Язык субтитров: Английский (полные, SDH, комментарии) (PGS)
Дата мировой премьеры: 20 декабря 2012
Дата российской премьеры: 10 января 2013, «Централ Партнершип»
Дата выхода DVD релиза: 13 мая 2013, «Новый Диск»
Режиссер: Кристофер МакКуорри
Актеры: Том Круз, Розамунд Пайк, Ричард Дженкинс, Вернер Херцог, Дэвид Ойелоуо, Роберт Дюваль, Джей Кортни, Владимир Сизов, Джозеф Сикора, Майкл Рэймонд-Джеймс
Описание фильма:
Снайпер убивает пять случайных прохожих, но все улики указывают на человека, заключенного под стражу. На допросе подозреваемый умоляет об одном — найти Джека Ричера.

Продолжительность: 02:10:25
Качество видео: BDRemux-Видеокодек: MPEG-4 AVC/H.264
Битрейт видео: ~27543 Кбит/сек
Размер кадра: 1920 х 1080
Аудио 1: Русский, AC3 5.1, 448 kbps, 48 kHz
Аудио 2: Английский, DTS-HD MA 7.1, 4173 kbps, 48 kHz
Аудио 3: Английский, AC3 2.0, 224 kbps, 48 kHz (Комментарий 1)
Аудио 4: Английский, AC3 2.0, 224 kbps, 48 kHz (Комментарий 2)-Сэмпл: Скачать-

Знаете ли вы, что...

? Фильм снят по роману Ли Чайлда «Выстрел».
? Хейли Этвелл, Брит Марлинг и Алекса Давалос рассматривались на роль Хелен Родин.
? Первоначально название фильма звучало как One Shot («Выстрел») по одноименному роману Ли Чайлда.
? Дебютный показ тизера фильма совпал с пятидесятым днем рождения Тома Круза.
? Персонаж Джека Ричера в книжной серии Ли Чайлда ростом 1,95 метра и весом около 100 килограммов. Рост Тома Круза — 1,7 метра.
? Брэд Питт, Хью Джекман, Винс Вон, Джейми Фокс и Уилл Смит рассматривались на роль Джека Ричера, прежде чем ее получил Том Круз.
? Том Круз сам исполнил все трюки своего персонажа, связанные с вождением.
? Выход фильма был запланирован на 21 декабря 2012 года, а американская гала-премьера — на 15 декабря. Но премьера была перенесена после массового убийства в начальной школе Сэнди Хук, которое произошло 14 декабря.
? В фильме Кэш дает Ричеру нож, на который тот смотрит с презрением. Это намек на роман Ли Чайлда «Нечего терять» (Nothing to Lose). В этом романе говорится о том, что Ричер ненавидит сталкиваться с противником, вооруженным ножом, считая, что у него нет «никакого особого таланта в этом».
? В сцене, где машина Ричера врезается в бочки, автомобиль случайно заглох после столкновения, но Тому Крузу удалось быстро завести машину, чтобы продолжить движение. В итоге вместо того, чтобы переснять сцену, Кристофер МакКуорри решил оставить ее такой, как есть, потому как ему казалось, что это добавляет в ленту напряжения.
? Ли Чайлд, автор книги, по которой снят фильм, сыграл эпизодическую роль полицейского, отдающего личные вещи Ричеру, когда тот выходит из тюрьмы.
? Во время сцены автомобильной погони с полицией можно заметить наклейку техосмотра на машине Ричера. В начале на ней отмечен июль 2012 года, а после дата меняется на сентябрь 2012-го.
? В баре, когда Джек звонит Хелен и Чарли, таймер вызова на Blackberry резко меняется с 25 до 27, а затем до 15 секунд.
-

MediaInfo:

Общее
Уникальный идентификатор : 253384365360043793238082216451069886443 (0xBEA00DBD3A793110B735F6BF004EBFEB)
Полное имя : D:\Films\Jack.Reacher.2012.1080p.BDRemux.mkv
Формат : Matroska
Версия формата : Version 2
Размер файла : 29,6 Гбайт
Продолжительность : 2 ч. 10 м.
Режим общего битрейта : Переменный
Общий поток : 32,4 Мбит/сек
Дата кодирования : UTC 2013-04-18 18:42:27
Программа кодирования : mkvmerge v5.2.0 ('I can't explain') built on Dec 18 2011 18:12:03
Библиотека кодирования : libebml v1.2.3 + libmatroska v1.3.0
Видео
Идентификатор : 1
Формат : AVC
Формат/Информация : Advanced Video Codec
Профиль формата : High@L4.1
Параметр CABAC формата : Да
Параметр ReFrames формата : 4 кадра
Идентификатор кодека : V_MPEG4/ISO/AVC
Продолжительность : 2 ч. 10 м.
Вид битрейта : Переменный
Максимальный битрейт : 32,0 Мбит/сек
Ширина : 1920 пикселей
Высота : 1080 пикселей
Соотношение сторон : 16:9
Режим частоты кадров : Постоянный
Частота кадров : 23,976 кадра/сек
Цветовое пространство : YUV
Субдискретизация насыщенности : 4:2:0
Битовая глубина : 8 бит
Тип развёртки : Прогрессивная
Язык : English
Default : Да
Forced : Нет
Аудио #1
Идентификатор : 2
Формат : AC-3
Формат/Информация : Audio Coding 3
Расширение режима : CM (complete main)
Параметр Endianness формата : Big
Идентификатор кодека : A_AC3
Продолжительность : 2 ч. 10 м.
Вид битрейта : Постоянный
Битрейт : 448 Кбит/сек
Каналы : 6 каналов
Расположение каналов : Front: L C R, Side: L R, LFE
Частота : 48,0 КГц
Битовая глубина : 16 бит
Метод сжатия : С потерями
Размер потока : 418 Мбайт (1%)
Заголовок : DUB [Line]
Язык : Russian
Default : Да
Forced : Нет
Аудио #2
Идентификатор : 3
Формат : DTS
Формат/Информация : Digital Theater Systems
Профиль формата : MA / Core
Режим : 16
Параметр Endianness формата : Big
Идентификатор кодека : A_DTS
Продолжительность : 2 ч. 10 м.
Вид битрейта : Переменный
Битрейт : Неизвестно / 1509 Кбит/сек
Каналы : 8 каналов / 6 каналов
Расположение каналов : Front: L C R, Side: L R, Back: L R, LFE / Front: L C R, Side: L R, LFE
Частота : 48,0 КГц
Битовая глубина : 24 бит
Метод сжатия : Без потерь / Lossy
Заголовок : Lossless
Язык : English
Default : Нет
Forced : Нет
Аудио #3
Идентификатор : 4
Формат : AC-3
Формат/Информация : Audio Coding 3
Расширение режима : CM (complete main)
Параметр Endianness формата : Big
Идентификатор кодека : A_AC3
Продолжительность : 2 ч. 10 м.
Вид битрейта : Постоянный
Битрейт : 224 Кбит/сек
Каналы : 2 канала
Расположение каналов : Front: L R
Частота : 48,0 КГц
Битовая глубина : 16 бит
Метод сжатия : С потерями
Размер потока : 209 Мбайт (1%)
Заголовок : Commentary
Язык : English
Default : Нет
Forced : Нет
Аудио #4
Идентификатор : 5
Формат : AC-3
Формат/Информация : Audio Coding 3
Расширение режима : CM (complete main)
Параметр Endianness формата : Big
Идентификатор кодека : A_AC3
Продолжительность : 2 ч. 10 м.
Вид битрейта : Постоянный
Битрейт : 224 Кбит/сек
Каналы : 2 канала
Расположение каналов : Front: L R
Частота : 48,0 КГц
Битовая глубина : 16 бит
Метод сжатия : С потерями
Размер потока : 209 Мбайт (1%)
Заголовок : Commentary
Язык : English
Default : Нет
Forced : Нет
Текст #1
Идентификатор : 6
Формат : PGS
Режим смешивания : zlib
Идентификатор кодека : S_HDMV/PGS
Идентификатор кодека/Информация : The same subtitle format used on BDs/HD-DVDs
Язык : English
Default : Нет
Forced : Нет
Текст #2
Идентификатор : 7
Формат : PGS
Режим смешивания : zlib
Идентификатор кодека : S_HDMV/PGS
Идентификатор кодека/Информация : The same subtitle format used on BDs/HD-DVDs
Заголовок : SDH
Язык : English
Default : Нет
Forced : Нет
Текст #3
Идентификатор : 8
Формат : PGS
Режим смешивания : zlib
Идентификатор кодека : S_HDMV/PGS
Идентификатор кодека/Информация : The same subtitle format used on BDs/HD-DVDs
Заголовок : Commentary
Язык : English
Default : Нет
Forced : Нет
Текст #4
Идентификатор : 9
Формат : PGS
Режим смешивания : zlib
Идентификатор кодека : S_HDMV/PGS
Идентификатор кодека/Информация : The same subtitle format used on BDs/HD-DVDs
Заголовок : Commentary
Язык : English
Default : Нет
Forced : Нет
Меню
00:00:00.000 : en:Chapter 00
00:08:21.667 : en:Chapter 01
00:14:19.900 : en:Chapter 02
00:21:51.685 : en:Chapter 03
00:30:02.342 : en:Chapter 04
00:35:46.477 : en:Chapter 05
00:41:22.980 : en:Chapter 06
00:49:08.111 : en:Chapter 07
00:55:36.291 : en:Chapter 08
01:01:44.117 : en:Chapter 09
01:08:11.295 : en:Chapter 10
01:16:56.320 : en:Chapter 11
01:23:51.526 : en:Chapter 12
01:30:20.164 : en:Chapter 13
01:38:01.584 : en:Chapter 14
01:45:08.927 : en:Chapter 15
01:53:39.312 : en:Chapter 16
02:01:50.469 : en:Chapter 17
-Скриншоты:
-Время раздачи: С 8:00 до 22:00 до 5 скачавших

[Цитировать]



Показать сообщения:    

Текущее время: 02-Дек 21:01

Часовой пояс: UTC + 3


Вы не можете начинать темы
Вы не можете отвечать на сообщения
Вы не можете редактировать свои сообщения
Вы не можете удалять свои сообщения
Вы не можете голосовать в опросах
Вы не можете прикреплять файлы к сообщениям
Вы не можете скачивать файлы

!ВНИМАНИЕ!
Сайт не предоставляет электронные версии произведений, а занимается лишь коллекционированием и каталогизацией ссылок, присылаемых и публикуемых на форуме нашими читателями. Если вы являетесь правообладателем какого-либо представленного материала и не желаете, чтобы ссылка на него находилась в нашем каталоге, свяжитесь с нами, и мы незамедлительно удалим ее. Файлы для обмена на трекере предоставлены пользователями сайта, и администрация не несет ответственности за их содержание. Просьба не заливать файлы, защищенные авторскими правами, а также файлы нелегального содержания!