[ Сегодня идет свободное скачивание без начисления Download ]


Статистика раздачи
Нет
 
   
 
Top  
 
 
Цель номер один / Zero Dark Thirty
Страна: США
Жанр: триллер, драма, исторический
Год выпуска: 2012
Продолжительность: 02:36:59
Перевод#1: Профессиональный (дублированный)
Перевод#2: Авторский (одноголосый закадровый), Ю. Живов (отдельно)
Cубтитры: русские (voronine, Ivanessen), английские
Оригинальная аудиодорожка: английский
Режиссер: Кэтрин Бигелоу
В ролях: Джессика Честейн, Джейсон Кларк, Джоэл Эдгертон, Дженнифер Или, Марк Стронг, Кайл Чандлер, Эдгар Рамирез, Джеймс Гандольфини, Крис Прэтт, Каллэн Мулвей
Описание: История операции по уничтожению Бен Ладена

Исходник: Цель номер один / Zero Dark Thirty (2012) 1080p BD-Remux
Качество видео: BDRip-AVC | sample
Формат видео: MKV
Видео кодек: x264
Видео: AVC 1152x624 (1.85:1), 23.976 fps, ~3530 Kbps, 0.21 bit/pixel
Аудио #1: Russian AC3 6ch 48kHz 448Kbps | Dub
Аудио #2: English AC3 6ch 48kHz 448Kbps | Original
Аудио #3: Russian AC3 6ch 48kHz 448Kbps | AVO Живов (отдельным файлом)
Формат субтитров: softsub (SRT)
Главы: есть

MediaInfo | x264

x264

--[NoImage] raw [info]: 1152x624p 1:1 @ 24000/1001 fps (cfr)
--[NoImage] x264 [info]: using SAR=1/1
--[NoImage] x264 [info]: using cpu capabilities: MMX2 SSE2Fast FastShuffle SSEMisalign LZCNT
--[NoImage] x264 [info]: profile High, level 4.1
--[NoImage] x264 [info]: cabac=1 ref=10 deblock=1:-3:-3 analyse=0x3:0x113 me=umh subme=11 psy=1 fade_compensate=0.90 psy_rd=1.00:0.00 mixed_ref=1 me_range=48 chroma_me=1 trellis=2 8x8dct=1 cqm=0 deadzone=21,11 fast_pskip=0 chroma_qp_offset=-2 threads=6 lookahead_threads=1 sliced_threads=0 nr=0 decimate=0 interlaced=0 bluray_compat=0 constrained_intra=0 bframes=14 b_pyramid=2 b_adapt=2 b_bias=0 direct=3 weightb=1 open_gop=0 weightp=2 keyint=240 keyint_min=23 scenecut=40 intra_refresh=0 rc_lookahead=120 rc=2pass mbtree=1 bitrate=3530 ratetol=1.0 qcomp=0.65 qpmin=0 qpmax=69 qpstep=4 cplxblur=20.0 qblur=0.5 vbv_maxrate=50000 vbv_bufsize=62500 nal_hrd=none ip_ratio=1.40 aq=1:1.00 zones=215990,225839,q=30
--[NoImage] frames fps kb/s elapsed remain size est.size
--[NoImage] x264 [info]: frame I:1712 Avg QP:11.95 size:120014
--[NoImage] x264 [info]: frame P:45412 Avg QP:15.20 size: 36702
--[NoImage] x264 [info]: frame B:178716 Avg QP:16.60 size: 12772
--[NoImage] x264 [info]: consecutive B-frames: 1.6% 2.0% 5.4% 23.0% 15.5% 28.0% 7.5% 8.5% 2.4% 2.0% 1.0% 1.9% 0.7% 0.2% 0.2%
--[NoImage] x264 [info]: mb I I16..4: 7.8% 71.9% 20.3%
--[NoImage] x264 [info]: mb P I16..4: 1.1% 9.7% 1.1% P16..4: 29.2% 38.6% 14.2% 0.0% 0.0% skip: 6.1%
--[NoImage] x264 [info]: mb B I16..4: 0.1% 1.2% 0.1% B16..8: 35.4% 24.5% 5.1% direct: 4.6% skip:29.0% L0:46.0% L1:45.0% BI: 9.0%
--[NoImage] x264 [info]: 8x8 transform intra:81.8% inter:56.1%
--[NoImage] x264 [info]: direct mvs spatial:99.3% temporal:0.7%
--[NoImage] x264 [info]: coded y,uvDC,uvAC intra: 89.9% 87.6% 74.5% inter: 24.2% 20.2% 10.2%
--[NoImage] x264 [info]: i16 v,h,dc,p: 29% 15% 4% 51%
--[NoImage] x264 [info]: i8 v,h,dc,ddl,ddr,vr,hd,vl,hu: 8% 7% 8% 10% 14% 13% 13% 12% 13%
--[NoImage] x264 [info]: i4 v,h,dc,ddl,ddr,vr,hd,vl,hu: 10% 8% 7% 10% 15% 14% 13% 11% 13%
--[NoImage] x264 [info]: i8c dc,h,v,p: 46% 22% 16% 17%
--[NoImage] x264 [info]: Weighted P-Frames: Y:4.3% UV:1.7%
--[NoImage] x264 [info]: ref P L0: 49.3% 3.8% 16.3% 8.4% 6.4% 5.0% 4.3% 2.5% 2.0% 1.7% 0.2% 0.0%
--[NoImage] x264 [info]: ref B L0: 70.4% 13.4% 6.5% 3.4% 2.4% 1.8% 1.4% 0.5% 0.2%
--[NoImage] x264 [info]: ref B L1: 92.0% 8.0%
--[NoImage] x264 [info]: kb/s:3528.70
General
Complete name : E:\...\Zero.Dark.Thirty.2012.BDRip.x264.DD5.1.Rus.Eng-E76.mkv
Format : Matroska
Format version : Version 4 / Version 2
File size : 4.85 GiB
Duration : 2h 36mn
Overall bit rate : 4 427 Kbps
Movie name : Zero.Dark.Thirty.2012.BDRip.x264.DD5.1.Rus.Eng-E76
Encoded date : UTC 2013-04-06 17:48:35
Writing application : mkvmerge v6.1.0 ('Old Devil') built on Mar 2 2013 14:32:37
Writing library : libebml v1.3.0 + libmatroska v1.4.0
Video
ID : 1
Format : AVC
Format/Info : Advanced Video Codec
Format profile : [email protected]
Format settings, CABAC : Yes
Format settings, ReFrames : 10 frames
Codec ID : V_MPEG4/ISO/AVC
Duration : 2h 36mn
Bit rate : 3 530 Kbps
Width : 1 152 pixels
Height : 624 pixels
Display aspect ratio : 1.85:1
Frame rate mode : Constant
Frame rate : 23.976 fps
Color space : YUV
Chroma subsampling : 4:2:0
Bit depth : 8 bits
Scan type : Progressive
Bits/(Pixel*Frame) : 0.205
Stream size : 3.78 GiB (78%)
Title : Encode by Enclave76
Writing library : x264 core 129 r2245kMod bc13772
Encoding settings : cabac=1 / ref=10 / deblock=1:-3:-3 / analyse=0x3:0x113 / me=umh / subme=11 / psy=1 / fade_compensate=0.90 / psy_rd=1.00:0.00 / mixed_ref=1 / me_range=48 / chroma_me=1 / trellis=2 / 8x8dct=1 / cqm=0 / deadzone=21,11 / fast_pskip=0 / chroma_qp_offset=-2 / threads=6 / lookahead_threads=1 / sliced_threads=0 / nr=0 / decimate=0 / interlaced=0 / bluray_compat=0 / constrained_intra=0 / bframes=14 / b_pyramid=2 / b_adapt=2 / b_bias=0 / direct=3 / weightb=1 / open_gop=0 / weightp=2 / keyint=240 / keyint_min=23 / scenecut=40 / intra_refresh=0 / rc_lookahead=120 / rc=2pass / mbtree=1 / bitrate=3530 / ratetol=1.0 / qcomp=0.65 / qpmin=0 / qpmax=69 / qpstep=4 / cplxblur=20.0 / qblur=0.5 / vbv_maxrate=50000 / vbv_bufsize=62500 / nal_hrd=none / ip_ratio=1.40 / aq=1:1.00 / zones=215990,225839,q=30
Language : English
Default : No
Forced : No
Matrix coefficients : BT.709
Audio #1
ID : 2
Format : AC-3
Format/Info : Audio Coding 3
Mode extension : CM (complete main)
Format settings, Endianness : Big
Codec ID : A_AC3
Duration : 2h 36mn
Bit rate mode : Constant
Bit rate : 448 Kbps
Channel(s) : 6 channels
Channel positions : Front: L C R, Side: L R, LFE
Sampling rate : 48.0 KHz
Bit depth : 16 bits
Compression mode : Lossy
Stream size : 503 MiB (10%)
Title : Dub R5
Language : Russian
Default : Yes
Forced : No
Audio #2
ID : 3
Format : AC-3
Format/Info : Audio Coding 3
Mode extension : CM (complete main)
Format settings, Endianness : Big
Codec ID : A_AC3
Duration : 2h 36mn
Bit rate mode : Constant
Bit rate : 448 Kbps
Channel(s) : 6 channels
Channel positions : Front: L C R, Side: L R, LFE
Sampling rate : 48.0 KHz
Bit depth : 16 bits
Compression mode : Lossy
Stream size : 503 MiB (10%)
Title : Original
Language : English
Default : No
Forced : No
Text #1
ID : 4
Format : UTF-8
Codec ID : S_TEXT/UTF8
Codec ID/Info : UTF-8 Plain Text
Title : voronine
Language : Russian
Default : No
Forced : No
Text #2
ID : 5
Format : UTF-8
Codec ID : S_TEXT/UTF8
Codec ID/Info : UTF-8 Plain Text
Title : Ivanessen
Language : Russian
Default : No
Forced : No
Text #3
ID : 6
Format : UTF-8
Codec ID : S_TEXT/UTF8
Codec ID/Info : UTF-8 Plain Text
Title : forced
Language : English
Default : No
Forced : No
Text #4
ID : 7
Format : UTF-8
Codec ID : S_TEXT/UTF8
Codec ID/Info : UTF-8 Plain Text
Language : English
Default : No
Forced : No
Text #5
ID : 8
Format : UTF-8
Codec ID : S_TEXT/UTF8
Codec ID/Info : UTF-8 Plain Text
Title : SDH
Language : English
Default : No
Forced : No
Menu
00:00:00.000 : en:00:00:00.000
00:09:50.298 : en:00:09:50.298
...
02:22:34.587 : en:02:22:34.587

Скриншоты





vs source

[Цитировать]

Топик был перенесен из форума Новинки кинопроката в форум Триллер
Henkok



Показать сообщения:    

Текущее время: 05-Дек 05:30

Часовой пояс: UTC + 3


Вы не можете начинать темы
Вы не можете отвечать на сообщения
Вы не можете редактировать свои сообщения
Вы не можете удалять свои сообщения
Вы не можете голосовать в опросах
Вы не можете прикреплять файлы к сообщениям
Вы не можете скачивать файлы

!ВНИМАНИЕ!
Сайт не предоставляет электронные версии произведений, а занимается лишь коллекционированием и каталогизацией ссылок, присылаемых и публикуемых на форуме нашими читателями. Если вы являетесь правообладателем какого-либо представленного материала и не желаете, чтобы ссылка на него находилась в нашем каталоге, свяжитесь с нами, и мы незамедлительно удалим ее. Файлы для обмена на трекере предоставлены пользователями сайта, и администрация не несет ответственности за их содержание. Просьба не заливать файлы, защищенные авторскими правами, а также файлы нелегального содержания!