[ Сегодня идет свободное скачивание без начисления Download ]


Статистика раздачи
Нет
 
   
 
Top  
 
 
Морской пехотинец: Тыл / Морской пехотинец 3 / The Marine 3: Homefront / The Marine: Homefront
Страна: США
Студия: WWE Studios, Zoic Studios, Furious FX
Жанр: боевик
Год выпуска: 2013
Продолжительность: 01:30:09
Перевод: Профессиональный (многоголосый закадровый) R5
Cубтитры: русские (R5), английские, английские (SDH)
Оригинальная аудиодорожка: английская
Режиссер: Скотт Вайпер / Scott Wiper
В ролях: Эшли Белл, Нил МакДонаф, Майкл Эклунд, Майк Мизанин, Камилль Салливан, Алекс Паунович, Риз Александр, Джеффри Баллард, Джаред Кисо, Тич Грант
Описание: Джим едет в родной городок всего на две недели. Он морской пехотинец и у него долгожданный отпуск. Родители давно умерли и его в Бриджтоне ждут только сёстры - Аманда и Лили. Но не успел Джим насладиться отдыхом, как и в тылу пришлось применять своё боевое мастерство: уединившиеся Лили и её парень нечаянно оказались свидетелями разборки и попали в плен к невменяемому "борцу" за справедливость...

Релиз: fanatus
Качество видео: BDRip (AVC)
Исходник: Blu-ray Disc (Custom) [BLUEBIRD]
Контейнер: MKV
Видео: MPEG-4 AVC, 2564 kbps , 1024x576 (16:9), 23.976 fps, 0.181 bit/pixel
Аудио 1: русский (AC3, 6 ch, 48 kHz, 448 kbps)
Аудио 2: английский (AC3, 6 ch, 48 kHz, 448 kbps)
Формат субтитров: softsub (SRT)
Главы: есть

MediaInfo

General
Unique ID : 249947417542945530223731188329432188953 (0xBC0A1F20F8250F239A899F51D8138819)
Complete name : D:\Morskoj.pehotinec.Tyl.2013.x264.BDRip.(AVC).fanatus.mkv
Format : Matroska
Format version : Version 2
File size : 2.18 GiB
Duration : 1h 30mn
Overall bit rate : 3 462 Kbps
Movie name : The Marine (2013) - fanatus
Encoded date : UTC 2013-04-18 02:20:08
Writing application : mkvmerge v3.4.0 ('Rapunzel') сборка от May 15 2010 09:38:20
Writing library : libebml v0.8.0 + libmatroska v0.9.0
Video
ID : 1
Format : AVC
Format/Info : Advanced Video Codec
Format profile : [email protected]
Format settings, CABAC : Yes
Format settings, ReFrames : 10 frames
Codec ID : V_MPEG4/ISO/AVC
Duration : 1h 30mn
Bit rate : 2 564 Kbps
Width : 1 024 pixels
Height : 576 pixels
Display aspect ratio : 16:9
Frame rate : 23.976 fps
Color space : YUV
Chroma subsampling : 4:2:0
Bit depth : 8 bits
Scan type : Progressive
Bits/(Pixel*Frame) : 0.181
Stream size : 1.57 GiB (72%)
Title : The Marine (2013)
Writing library : x264 core 130 r2273 b3065e6
Encoding settings : cabac=1 / ref=10 / deblock=1:-3:-3 / analyse=0x3:0x113 / me=umh / subme=11 / psy=1 / psy_rd=1.05:0.05 / mixed_ref=1 / me_range=48 / chroma_me=1 / trellis=2 / 8x8dct=1 / cqm=0 / deadzone=21,11 / fast_pskip=0 / chroma_qp_offset=-3 / threads=16 / lookahead_threads=4 / sliced_threads=0 / nr=0 / decimate=0 / interlaced=0 / bluray_compat=0 / constrained_intra=0 / bframes=14 / b_pyramid=2 / b_adapt=2 / b_bias=0 / direct=3 / weightb=1 / open_gop=0 / weightp=2 / keyint=240 / keyint_min=23 / scenecut=40 / intra_refresh=0 / rc_lookahead=240 / rc=2pass / mbtree=1 / bitrate=2564 / ratetol=1.0 / qcomp=0.70 / qpmin=0 / qpmax=69 / qpstep=4 / cplxblur=20.0 / qblur=0.5 / vbv_maxrate=50000 / vbv_bufsize=62500 / nal_hrd=none / ip_ratio=1.40 / aq=1:0.95
Language : English
Default : Yes
Forced : No
Audio #1
ID : 2
Format : AC-3
Format/Info : Audio Coding 3
Mode extension : CM (complete main)
Format settings, Endianness : Big
Codec ID : A_AC3
Duration : 1h 30mn
Bit rate mode : Constant
Bit rate : 448 Kbps
Channel(s) : 6 channels
Channel positions : Front: L C R, Side: L R, LFE
Sampling rate : 48.0 KHz
Bit depth : 16 bits
Compression mode : Lossy
Stream size : 289 MiB (13%)
Title : MVO (R5)
Language : Russian
Default : Yes
Forced : Yes
Audio #2
ID : 3
Format : AC-3
Format/Info : Audio Coding 3
Mode extension : CM (complete main)
Format settings, Endianness : Big
Codec ID : A_AC3
Duration : 1h 30mn
Bit rate mode : Constant
Bit rate : 448 Kbps
Channel(s) : 6 channels
Channel positions : Front: L C R, Side: L R, LFE
Sampling rate : 48.0 KHz
Bit depth : 16 bits
Compression mode : Lossy
Stream size : 289 MiB (13%)
Title : Original
Language : English
Default : No
Forced : No
Text #1
ID : 4
Format : UTF-8
Codec ID : S_TEXT/UTF8
Codec ID/Info : UTF-8 Plain Text
Language : Russian
Default : No
Forced : No
Text #2
ID : 5
Format : UTF-8
Codec ID : S_TEXT/UTF8
Codec ID/Info : UTF-8 Plain Text
Language : English
Default : No
Forced : No
Text #3
ID : 6
Format : UTF-8
Codec ID : S_TEXT/UTF8
Codec ID/Info : UTF-8 Plain Text
Title : SDH
Language : English
Default : No
Forced : No
Menu
00:00:00.000 : en:Chapter 01
00:03:32.003 : en:Chapter 02
00:05:47.597 : en:Chapter 03
00:10:30.171 : en:Chapter 04
00:14:21.527 : en:Chapter 05
00:17:27.588 : en:Chapter 06
00:20:31.813 : en:Chapter 07
00:24:18.915 : en:Chapter 08
00:30:05.553 : en:Chapter 09
00:34:46.125 : en:Chapter 10
00:38:53.706 : en:Chapter 11
00:42:35.010 : en:Chapter 12
00:47:32.057 : en:Chapter 13
00:50:49.379 : en:Chapter 14
00:53:55.440 : en:Chapter 15
00:55:43.757 : en:Chapter 16
00:58:17.535 : en:Chapter 17
01:00:48.227 : en:Chapter 18
01:04:25.987 : en:Chapter 19
01:07:45.561 : en:Chapter 20
01:11:54.935 : en:Chapter 21
01:14:33.218 : en:Chapter 22
01:18:44.845 : en:Chapter 23
01:22:47.712 : en:Chapter 24

x264 [info]

-[NoImage] raw [info]: 1024x576p 1:1 @ 24000/1001 fps (cfr)
-[NoImage] x264 [info]: using SAR=1/1
-[NoImage] x264 [info]: using cpu capabilities: MMX2 SSE2Fast SSEMisalign LZCNT
-[NoImage] x264 [info]: profile High, level 4.1
-[NoImage]
-[NoImage] x264 [info]: frame I:1062 Avg QP:12.69 size: 94255
-[NoImage] x264 [info]: frame P:37000 Avg QP:16.68 size: 24260
-[NoImage] x264 [info]: frame B:91634 Avg QP:18.31 size: 8033
-[NoImage] x264 [info]: consecutive B-frames: 6.2% 10.2% 12.0% 24.8% 16.0% 20.5% 4.0% 2.8% 1.2% 0.7% 0.3% 0.5% 0.3% 0.1% 0.3%
-[NoImage] x264 [info]: mb I I16..4: 10.2% 65.8% 24.0%
-[NoImage] x264 [info]: mb P I16..4: 1.0% 10.3% 1.3% P16..4: 31.2% 34.2% 10.0% 0.0% 0.0% skip:11.9%
-[NoImage] x264 [info]: mb B I16..4: 0.1% 1.2% 0.1% B16..8: 35.4% 21.2% 3.0% direct: 4.5% skip:34.5% L0:41.2% L1:46.4% BI:12.4%
-[NoImage] x264 [info]: 8x8 transform intra:80.0% inter:58.2%
-[NoImage] x264 [info]: direct mvs spatial:95.5% temporal:4.5%
-[NoImage] x264 [info]: coded y,uvDC,uvAC intra: 88.7% 75.7% 50.3% inter: 21.6% 15.5% 7.8%
-[NoImage] x264 [info]: i16 v,h,dc,p: 22% 11% 5% 62%
-[NoImage] x264 [info]: i8 v,h,dc,ddl,ddr,vr,hd,vl,hu: 9% 10% 4% 10% 14% 13% 14% 13% 14%
-[NoImage] x264 [info]: i4 v,h,dc,ddl,ddr,vr,hd,vl,hu: 9% 10% 6% 9% 15% 13% 14% 10% 13%
-[NoImage] x264 [info]: i8c dc,h,v,p: 37% 28% 18% 16%
-[NoImage] x264 [info]: Weighted P-Frames: Y:4.0% UV:0.7%
-[NoImage] x264 [info]: ref P L0: 53.6% 9.6% 16.0% 5.7% 4.4% 3.4% 2.7% 1.6% 1.3% 1.4% 0.4% 0.0%
-[NoImage] x264 [info]: ref B L0: 79.1% 10.4% 4.5% 2.1% 1.4% 1.1% 0.8% 0.4% 0.2%
-[NoImage] x264 [info]: ref B L1: 93.4% 6.6%
-[NoImage] x264 [info]: kb/s:2564.11
-[NoImage] encoded 129696 frames, 11.09 fps, 2564.11 kb/s

Скриншот c названием фильма

Скриншоты

Сравнение с исходником

http://screenshotcomparison.com/comparison/19479

[Цитировать]

Топик был перенесен из форума Новинки кинопроката в форум Боевик
Henkok



Показать сообщения:    

Текущее время: 06-Дек 17:13

Часовой пояс: UTC + 3


Вы не можете начинать темы
Вы не можете отвечать на сообщения
Вы не можете редактировать свои сообщения
Вы не можете удалять свои сообщения
Вы не можете голосовать в опросах
Вы не можете прикреплять файлы к сообщениям
Вы не можете скачивать файлы

!ВНИМАНИЕ!
Сайт не предоставляет электронные версии произведений, а занимается лишь коллекционированием и каталогизацией ссылок, присылаемых и публикуемых на форуме нашими читателями. Если вы являетесь правообладателем какого-либо представленного материала и не желаете, чтобы ссылка на него находилась в нашем каталоге, свяжитесь с нами, и мы незамедлительно удалим ее. Файлы для обмена на трекере предоставлены пользователями сайта, и администрация не несет ответственности за их содержание. Просьба не заливать файлы, защищенные авторскими правами, а также файлы нелегального содержания!