[ Сегодня идет свободное скачивание без начисления Download ]


Статистика раздачи
Нет
 
   
 
Top  
 
 
Ангел-хранитель / Schutzengel
Страна: Германия,
Студия: Warner Bros. Film Productions Germany, barefoot films
Жанр: триллер, боевик
Год выпуска: 2012
Продолжительность: 02:13:26
Перевод: Профессиональный (дублированный) [лицензия Blu-ray Rus]
Cубтитры: русские
Режиссер: Тиль Швайгер / Til Schweiger
В ролях: Тиль Швайгер, Луна Швайгер, Каролине Шух, Мориц Бляйбтрой, Хайнер Лаутербах, Райнер Бок, Херберт Кнауп, Давид Акинлойе, Фолькер Альберс, Нуман Акар
Описание: Нина, молодая девушка — сирота, неожиданно становится свидетелем убийства, совершенного богатым предпринимателем. Теперь она — большая проблема на пути бизнесмена. Девушке негде укрыться, некуда бежать. Ее спасением становится бывший солдат Макс. Отныне он ее ангел-хранитель. Чтобы остаться в живых, им нужно срочно исчезнуть…

Релиз: fanatus
Качество видео: BDRip-AVC
Исходник: Blu-ray 1080p [Rus]
Контейнер: MKV
Видео: MPEG-4 AVC, 1348 kbps , 1024x430 (2.40:1), 24.000 fps, 0.179 bit/pixel
Аудио : русский (AC3, 6 ch, 48 kHz, 448 kbps)
Формат субтитров: softsub (SRT)
Главы: есть

MediaInfo

General
Unique ID : 238065676803402637657037730572549820957 (0xB319C814E209B48890FA9D5A93C5121D)
Complete name : D:\Angel-hranitel.2012.x264.BDRip.(AVC).fanatus.mkv
Format : Matroska
Format version : Version 2
File size : 2.18 GiB
Duration : 2h 13mn
Overall bit rate : 2 340 Kbps
Movie name : Schutzengel (2012) - fanatus
Encoded date : UTC 2013-04-19 07:26:51
Writing application : mkvmerge v3.4.0 ('Rapunzel') сборка от May 15 2010 09:38:20
Writing library : libebml v0.8.0 + libmatroska v0.9.0
Video
ID : 1
Format : AVC
Format/Info : Advanced Video Codec
Format profile : [email protected]
Format settings, CABAC : Yes
Format settings, ReFrames : 10 frames
Codec ID : V_MPEG4/ISO/AVC
Duration : 2h 13mn
Bit rate : 1 890 Kbps
Width : 1 024 pixels
Height : 430 pixels
Display aspect ratio : 2.40:1
Frame rate : 24.000 fps
Color space : YUV
Chroma subsampling : 4:2:0
Bit depth : 8 bits
Scan type : Progressive
Bits/(Pixel*Frame) : 0.179
Stream size : 1.72 GiB (79%)
Title : Schutzengel (2012)
Writing library : x264 core 130 r2273 b3065e6
Encoding settings : cabac=1 / ref=10 / deblock=1:-2:-2 / analyse=0x3:0x113 / me=umh / subme=11 / psy=1 / psy_rd=1.00:0.10 / mixed_ref=1 / me_range=48 / chroma_me=1 / trellis=2 / 8x8dct=1 / cqm=0 / deadzone=21,11 / fast_pskip=0 / chroma_qp_offset=-3 / threads=16 / lookahead_threads=3 / sliced_threads=0 / nr=0 / decimate=0 / interlaced=0 / bluray_compat=0 / constrained_intra=0 / bframes=12 / b_pyramid=2 / b_adapt=2 / b_bias=0 / direct=3 / weightb=1 / open_gop=0 / weightp=2 / keyint=240 / keyint_min=24 / scenecut=40 / intra_refresh=0 / rc_lookahead=240 / rc=2pass / mbtree=1 / bitrate=1890 / ratetol=1.0 / qcomp=0.70 / qpmin=0 / qpmax=69 / qpstep=3 / cplxblur=20.0 / qblur=0.5 / vbv_maxrate=50000 / vbv_bufsize=62500 / nal_hrd=none / ip_ratio=1.30 / aq=1:0.75 / zones=183616,192151,q=34
Language : German
Default : Yes
Forced : No
Audio
ID : 2
Format : AC-3
Format/Info : Audio Coding 3
Mode extension : CM (complete main)
Format settings, Endianness : Big
Codec ID : A_AC3
Duration : 2h 13mn
Bit rate mode : Constant
Bit rate : 448 Kbps
Channel(s) : 6 channels
Channel positions : Front: L C R, Side: L R, LFE
Sampling rate : 48.0 KHz
Bit depth : 16 bits
Compression mode : Lossy
Stream size : 428 MiB (19%)
Title : Dub
Language : Russian
Default : Yes
Forced : No
Text
ID : 3
Format : UTF-8
Codec ID : S_TEXT/UTF8
Codec ID/Info : UTF-8 Plain Text
Language : Russian
Default : No
Forced : No
Menu
00:00:00.000 : en:Chapter 01
00:01:36.583 : en:Chapter 02
00:12:10.083 : en:Chapter 03
00:23:38.250 : en:Chapter 04
00:38:14.083 : en:Chapter 05
00:52:10.250 : en:Chapter 06
01:10:07.875 : en:Chapter 07
01:27:55.416 : en:Chapter 08
01:50:53.916 : en:Chapter 09
02:13:26.291 : en:Chapter 10

x264 [info]

-[NoImage] raw [info]: 1024x430p 1:1 @ 24/1 fps (cfr)
-[NoImage] x264 [info]: using SAR=1/1
-[NoImage] x264 [info]: using cpu capabilities: MMX2 SSE2Fast SSEMisalign LZCNT
-[NoImage] x264 [info]: profile High, level 4.1
-[NoImage]
-[NoImage] x264 [info]: frame I:2991 Avg QP:15.78 size: 58367
-[NoImage] x264 [info]: frame P:42103 Avg QP:19.12 size: 18840
-[NoImage] x264 [info]: frame B:147058 Avg QP:20.58 size: 6280
-[NoImage] x264 [info]: consecutive B-frames: 3.5% 3.2% 7.8% 19.0% 18.0% 34.4% 6.1% 2.4% 1.8% 1.5% 0.8% 0.9% 0.7%
-[NoImage] x264 [info]: mb I I16..4: 12.1% 68.8% 19.1%
-[NoImage] x264 [info]: mb P I16..4: 3.7% 13.3% 1.9% P16..4: 32.6% 32.9% 9.4% 0.0% 0.0% skip: 6.3%
-[NoImage] x264 [info]: mb B I16..4: 0.5% 1.5% 0.1% B16..8: 34.3% 16.2% 2.3% direct: 5.4% skip:39.6% L0:43.5% L1:45.1% BI:11.4%
-[NoImage] x264 [info]: 8x8 transform intra:69.9% inter:64.2%
-[NoImage] x264 [info]: direct mvs spatial:97.5% temporal:2.5%
-[NoImage] x264 [info]: coded y,uvDC,uvAC intra: 69.3% 70.3% 45.8% inter: 20.7% 23.0% 6.3%
-[NoImage] x264 [info]: i16 v,h,dc,p: 40% 13% 6% 41%
-[NoImage] x264 [info]: i8 v,h,dc,ddl,ddr,vr,hd,vl,hu: 11% 8% 10% 9% 12% 13% 12% 12% 13%
-[NoImage] x264 [info]: i4 v,h,dc,ddl,ddr,vr,hd,vl,hu: 15% 10% 10% 8% 13% 12% 11% 10% 11%
-[NoImage] x264 [info]: i8c dc,h,v,p: 36% 29% 19% 16%
-[NoImage] x264 [info]: Weighted P-Frames: Y:3.2% UV:1.4%
-[NoImage] x264 [info]: ref P L0: 49.0% 8.6% 19.5% 6.6% 5.3% 3.5% 3.0% 1.6% 1.5% 1.3% 0.2% 0.0%
-[NoImage] x264 [info]: ref B L0: 71.1% 13.8% 6.4% 3.1% 2.1% 1.6% 1.2% 0.5% 0.2%
-[NoImage] x264 [info]: ref B L1: 91.0% 9.0%
-[NoImage] x264 [info]: kb/s:1889.75
-[NoImage] encoded 192152 frames, 15.84 fps, 1889.75 kb/s

Скриншот c названием фильма

Скриншоты

Сравнение с исходником

http://screenshotcomparison.com/comparison/19651

[Цитировать]

Топик был перенесен из форума Новинки кинопроката в форум Триллер
Henkok



Показать сообщения:    

Текущее время: 06-Дек 22:57

Часовой пояс: UTC + 3


Вы не можете начинать темы
Вы не можете отвечать на сообщения
Вы не можете редактировать свои сообщения
Вы не можете удалять свои сообщения
Вы не можете голосовать в опросах
Вы не можете прикреплять файлы к сообщениям
Вы не можете скачивать файлы

!ВНИМАНИЕ!
Сайт не предоставляет электронные версии произведений, а занимается лишь коллекционированием и каталогизацией ссылок, присылаемых и публикуемых на форуме нашими читателями. Если вы являетесь правообладателем какого-либо представленного материала и не желаете, чтобы ссылка на него находилась в нашем каталоге, свяжитесь с нами, и мы незамедлительно удалим ее. Файлы для обмена на трекере предоставлены пользователями сайта, и администрация не несет ответственности за их содержание. Просьба не заливать файлы, защищенные авторскими правами, а также файлы нелегального содержания!