[ Today is free to download without increasing Download ]

DL-List and Torrent activity
Из ада / From Hell«Страшная легенда оживает вновь»
Год выпуска: 2001
Страна: США
Производство: 20th Century Fox Film Corporation, Underworld Entertainment
Жанр: ужасы, триллер, детектив
Режиссер: Альберт Хьюз, Аллен Хьюз
В ролях: Джонни Депп, Хизер Грэм, Йен Холм, Робби Колтрейн, Йен Ричардсон, Джейсон Флеминг, Катрин Картлидж, Теренс Харви, Сьюзэн Линч, Пол Риз, Лесли Шарп, Estelle Skornik, Николас МакГафи, Annabelle Apsion, Джоэнна Пейдж, Марк Декстер, Дэнни Мидуинтер, Саманта Спиро, Дэвид Шофилд, Bryon Fear, Питер Айр
Перевод: Профессиональный (полное дублирование)
Субтитры: Отсутствуют
Описание: Он — воплощение тьмы и ужаса. Он самый таинственный и знаменитый из всех серийных убийц, известных истории. Он погрузил Англию в атмосферу страха и породил массу слухов и домыслов. Убийца, который знает больше простого мясника или лаборанта. Убивая, он совершает чудовищный ритуал. Его прозвище — Джек-Потрошитель.

Релиз от:
Качество: BDRip
Продолжительность: 02:02:12
Формат: AVI
Видео кодек: XviD
Аудио кодек: AC3
Видео: 720x304 (2.37:1), 23.976 fps, XviD build 50 ~2101 kbps avg, 0.40 bit/pixel
Аудио: 48 kHz, AC3 Dolby Digital, 3/2 (L,C,R,l,r) + LFE ch, ~448.00 kbps avg

Media Info

Complete name                  : D:\фильмы\Iz ada.2001.BDRip.XviD.AC3.HELLYWOOD.avi
Format                         : AVI
Format/Info                    : Audio Video Interleave
Format profile                 : OpenDML
File size                      : 2.18 GiB
Duration                       : 2h 2mn
Overall bit rate               : 2 556 Kbps
Movie name                     : Из ада / From Hell (2001) BDRip
Director                       : СоФи
Writing application            : VirtualDubMod (build 2542/release)
Copyright                      : http://www.hellywood.ru
Comment                        : 30.01.10
ID                             : 0
Format                         : MPEG-4 Visual
Format profile                 : Advanced Simple@L5
Format settings, BVOP          : 1
Format settings, QPel          : No
Format settings, GMC           : No warppoints
Format settings, Matrix        : Custom
Codec ID                       : XVID
Codec ID/Hint                  : XviD
Duration                       : 2h 2mn
Bit rate                       : 2 096 Kbps
Width                          : 720 pixels
Height                         : 304 pixels
Display aspect ratio           : 2.35:1
Frame rate                     : 23.976 fps
Color space                    : YUV
Chroma subsampling             : 4:2:0
Bit depth                      : 8 bits
Scan type                      : Progressive
Compression mode               : Lossy
Bits/(Pixel*Frame)             : 0.399
Stream size                    : 1.79 GiB (82%)
Writing library                : XviD 1.2.1 (UTC 2008-12-04)
ID                             : 1
Format                         : AC-3
Format/Info                    : Audio Coding 3
Mode extension                 : CM (complete main)
Codec ID                       : 2000
Duration                       : 2h 2mn
Bit rate mode                  : Constant
Bit rate                       : 448 Kbps
Channel(s)                     : 6 channels
Channel positions              : Front: L C R, Side: L R, LFE
Sampling rate                  : 48.0 KHz
Bit depth                      : 16 bits
Compression mode               : Lossy
Stream size                    : 392 MiB (18%)
Alignment                      : Split accross interleaves
Interleave, duration           : 42 ms (1.00 video frame)
Interleave, preload duration   : 500 ms



Эхх классный фильм смотрел несколько раз, вообще я фанат Джонни! Да и стилистика Лондона тех времен очень понравилось!


Display posts:    

Current time is: 21-Oct 17:56

All times are UTC + 3

You cannot post new topics in this forum
You cannot reply to topics in this forum
You cannot edit your posts in this forum
You cannot delete your posts in this forum
You cannot vote in polls in this forum
You cannot attach files in this forum
You cannot download files in this forum

The site does not give electronic versions of products, and is engaged only in a collecting and cataloguing of the references sent and published at a forum by our readers. If you are the legal owner of any submitted material and do not wish that the reference to it was in our catalogue, contact us and we shall immediately remove her. Files for an exchange on tracker are given by users of a site, and the administration does not bear the responsibility for their maintenance. The request to not fill in the files protected by copyrights, and also files of the illegal maintenance!