[ Сегодня идет свободное скачивание без начисления Download ]


Статистика раздачи
Нет
 
   
 
Top  
 
 
Из ада / From Hell«Страшная легенда оживает вновь»
Год выпуска: 2001
Страна: США
Производство: 20th Century Fox Film Corporation, Underworld Entertainment
Жанр: ужасы, триллер, детектив
Режиссер: Альберт Хьюз, Аллен Хьюз
В ролях: Джонни Депп, Хизер Грэм, Йен Холм, Робби Колтрейн, Йен Ричардсон, Джейсон Флеминг, Катрин Картлидж, Теренс Харви, Сьюзэн Линч, Пол Риз, Лесли Шарп, Estelle Skornik, Николас МакГафи, Annabelle Apsion, Джоэнна Пейдж, Марк Декстер, Дэнни Мидуинтер, Саманта Спиро, Дэвид Шофилд, Bryon Fear, Питер Айр
Перевод: Профессиональный (полное дублирование)
Субтитры: Отсутствуют
Описание: Он — воплощение тьмы и ужаса. Он самый таинственный и знаменитый из всех серийных убийц, известных истории. Он погрузил Англию в атмосферу страха и породил массу слухов и домыслов. Убийца, который знает больше простого мясника или лаборанта. Убивая, он совершает чудовищный ритуал. Его прозвище — Джек-Потрошитель.

Релиз от:
Качество: BDRip
Продолжительность: 02:02:12
Формат: AVI
Видео кодек: XviD
Аудио кодек: AC3
Видео: 720x304 (2.37:1), 23.976 fps, XviD build 50 ~2101 kbps avg, 0.40 bit/pixel
Аудио: 48 kHz, AC3 Dolby Digital, 3/2 (L,C,R,l,r) + LFE ch, ~448.00 kbps avg

Media Info

General
Complete name                  : D:\фильмы\Iz ada.2001.BDRip.XviD.AC3.HELLYWOOD.avi
Format                         : AVI
Format/Info                    : Audio Video Interleave
Format profile                 : OpenDML
File size                      : 2.18 GiB
Duration                       : 2h 2mn
Overall bit rate               : 2 556 Kbps
Movie name                     : Из ада / From Hell (2001) BDRip
Director                       : СоФи
Writing application            : VirtualDubMod 1.5.10.2 (build 2542/release)
Copyright                      : http://www.hellywood.ru
Comment                        : 30.01.10
Video
ID                             : 0
Format                         : MPEG-4 Visual
Format profile                 : Advanced Simple@L5
Format settings, BVOP          : 1
Format settings, QPel          : No
Format settings, GMC           : No warppoints
Format settings, Matrix        : Custom
Codec ID                       : XVID
Codec ID/Hint                  : XviD
Duration                       : 2h 2mn
Bit rate                       : 2 096 Kbps
Width                          : 720 pixels
Height                         : 304 pixels
Display aspect ratio           : 2.35:1
Frame rate                     : 23.976 fps
Color space                    : YUV
Chroma subsampling             : 4:2:0
Bit depth                      : 8 bits
Scan type                      : Progressive
Compression mode               : Lossy
Bits/(Pixel*Frame)             : 0.399
Stream size                    : 1.79 GiB (82%)
Writing library                : XviD 1.2.1 (UTC 2008-12-04)
Audio
ID                             : 1
Format                         : AC-3
Format/Info                    : Audio Coding 3
Mode extension                 : CM (complete main)
Codec ID                       : 2000
Duration                       : 2h 2mn
Bit rate mode                  : Constant
Bit rate                       : 448 Kbps
Channel(s)                     : 6 channels
Channel positions              : Front: L C R, Side: L R, LFE
Sampling rate                  : 48.0 KHz
Bit depth                      : 16 bits
Compression mode               : Lossy
Stream size                    : 392 MiB (18%)
Alignment                      : Split accross interleaves
Interleave, duration           : 42 ms (1.00 video frame)
Interleave, preload duration   : 500 ms

Скриншоты

[Цитировать]

Эхх классный фильм смотрел несколько раз, вообще я фанат Джонни! Да и стилистика Лондона тех времен очень понравилось!

[Цитировать]



Показать сообщения:    

Текущее время: 09-Дек 08:54

Часовой пояс: UTC + 3


Вы не можете начинать темы
Вы не можете отвечать на сообщения
Вы не можете редактировать свои сообщения
Вы не можете удалять свои сообщения
Вы не можете голосовать в опросах
Вы не можете прикреплять файлы к сообщениям
Вы не можете скачивать файлы

!ВНИМАНИЕ!
Сайт не предоставляет электронные версии произведений, а занимается лишь коллекционированием и каталогизацией ссылок, присылаемых и публикуемых на форуме нашими читателями. Если вы являетесь правообладателем какого-либо представленного материала и не желаете, чтобы ссылка на него находилась в нашем каталоге, свяжитесь с нами, и мы незамедлительно удалим ее. Файлы для обмена на трекере предоставлены пользователями сайта, и администрация не несет ответственности за их содержание. Просьба не заливать файлы, защищенные авторскими правами, а также файлы нелегального содержания!