[ Сегодня идет свободное скачивание без начисления Download ]


Статистика раздачи
Нет
 
   
 
Top  
 
 
-Слепой / A l'aveugle (2012) HDRip- Русское название: Слепой
Оригинальное название: A l'aveugle
Год выпуска: 2012
Производство: Франция, EuropaCorp, France 2 Cin?ma, Orange Cin?ma S?ries
Жанр: Боевик, Триллер
Перевод: Одноголосый закадровый, любительский [den904]
Субтитры: Отсутствуют-Дата мировой премьеры: 7 марта 2012-Режиссер: Ксавьер Палю
Продюсер: Люк Бессон
Актеры: Жак Гамблен, Ламбер Вильсон, Рафаэль Ароре, Арно Коссон, Антуан Леваннье, Фридерик Контожом, Давид Капелле, Натали Винье, Паскаль Демолон, Николя Пиньон, Дэниэл Лобе, Миглен Миртчев, Артур Монкла-Описание фильма:
Изувеченный труп молодой девушки найден у нее дома. Ни взлома, ни свидетелей, все выглядит идеальным преступлением. Расследование поручается капитану Лассаллю, опытному одинокому полицейскому, разбитому недавней смертью жены. Схожие по характеру жестокие убийства продолжают происходить, и в связи с ними Лассалля интригует личность слепого Нарвика. Но у него есть алиби, а его немощь, казалось бы, ограждает от подозрений. Странная дуэль наподобие игры в шахматы начинается между двумя людьми.- -Продолжительность: 01:33:26
Качество видео: HDRip-Видеокодек: Xvid
Битрейт видео: ~974 Кбит/с
Размер кадра: 640x272
Аудиокодек: MP3 (2 ch)
Битрейт аудио: 128 Кбит/с

MediaInfo:

Общее
Полное имя : D:\Торрент раздача\Slepoj.2012.L1.HDRip.745Mb.avi
Формат : AVI
Формат/Информация : Audio Video Interleave
Размер файла : 743 Мбайт
Продолжительность : 1 ч. 33 м.
Общий поток : 1112 Кбит/сек
Программа кодирования : VirtualDubMod 1.5.10.3 | www.virtualdub-fr.org || (build 2550/release)
Библиотека кодирования : VirtualDubMod build 2550/release
Видео
Идентификатор : 0
Формат : MPEG-4 Visual
Профиль формата : Advanced Simple@L5
Параметр BVOP формата : 1
Параметр QPel формата : Нет
Параметр GMC формата : Без точки перехода
Параметр матрицы формата : Default (MPEG)
Идентификатор кодека : XVID
Идентификатор кодека/Подсказка : XviD
Продолжительность : 1 ч. 33 м.
Битрейт : 974 Кбит/сек
Ширина : 640 пикселей
Высота : 272 пикселя
Соотношение сторон : 2,35:1
Частота кадров : 23,976 кадра/сек
Цветовое пространство : YUV
Субдискретизация насыщенности : 4:2:0
Битовая глубина : 8 бит
Тип развёртки : Прогрессивная
Метод сжатия : С потерями
Бит/(Пиксели*Кадры) : 0.233
Размер потока : 651 Мбайт (88%)
Библиотека кодирования : XviD 1.2.1 (UTC 2008-12-04)
Аудио
Идентификатор : 1
Формат : MPEG Audio
Версия формата : Version 1
Профиль формата : Layer 3
Идентификатор кодека : 55
Идентификатор кодека/Подсказка : MP3
Продолжительность : 1 ч. 33 м.
Вид битрейта : Постоянный
Битрейт : 128 Кбит/сек
Каналы : 2 канала
Частота : 48,0 КГц
Метод сжатия : С потерями
Размер потока : 85,6 Мбайт (12%)
Выравнивание : Соединение по промежуткам
Продолжительность промежутка : 42 мс. (1,00 видеокадр)
Время предзагрузки промежутка : 504 мс.
Библиотека кодирования : LAME3.98r
Настройки программы : -m s -V 4 -q 2 -lowpass 17 -b 128
Скриншоты:
Время раздачи: 24/7

[Цитировать]

Топик был перенесен из форума Новинки кинопроката в форум Боевик
Henkok



Показать сообщения:    

Текущее время: 08-Дек 07:01

Часовой пояс: UTC + 3


Вы не можете начинать темы
Вы не можете отвечать на сообщения
Вы не можете редактировать свои сообщения
Вы не можете удалять свои сообщения
Вы не можете голосовать в опросах
Вы не можете прикреплять файлы к сообщениям
Вы не можете скачивать файлы

!ВНИМАНИЕ!
Сайт не предоставляет электронные версии произведений, а занимается лишь коллекционированием и каталогизацией ссылок, присылаемых и публикуемых на форуме нашими читателями. Если вы являетесь правообладателем какого-либо представленного материала и не желаете, чтобы ссылка на него находилась в нашем каталоге, свяжитесь с нами, и мы незамедлительно удалим ее. Файлы для обмена на трекере предоставлены пользователями сайта, и администрация не несет ответственности за их содержание. Просьба не заливать файлы, защищенные авторскими правами, а также файлы нелегального содержания!