[ Сегодня идет свободное скачивание без начисления Download ]


Статистика раздачи
Нет
 
   
 
Top  
 
 
-Пила 3D / Saw 3D (2010) BDRip-«Ловушки оживают»- Русское название: Пила 3D
Оригинальное название: Saw 3D
Год выпуска: 2010
Жанр: Ужасы, Триллер, Детектив
Описание фильма:
Жертвы Пилы, выжившие в предыдущих испытаниях, обращаются за психологической помощью к товарищу по несчастью Бобби Дагену. Но когда его собственные темные тайны всплывают на свет, развязывается новая волна террора.-Режиссер: Кевин Гротерт
Актеры: Костас Мэндилор, Шон Патрик Флэнери, Тобин Белл, Кэри Элвис, Бетси Расселл, Дин Армстронг, Чэд Донелла, Джина Холден, Лоуренс Энтони, Наоми Сникус
Роли дубдировали: Радик Мухаметзянов, Илья Бледный, Александр Новиков, Александр Рахленко, Елена Соловьев
Продолжительность: 01:30:10
Перевод: Дублированный-
Рейтинг R Лицам до 17 лет обязательно присутствие взрослого
Возраст+ Зрителям, достигшим 18 лет-Дата мировой премьеры: 22 октября 2010
Дата российской премьеры: 28 октября 2010, «Каскад»
Дата выхода DVD релиза: 25 ноября 2010, «ВС трейд»
Дата выхода BLU-RAY релиза: 14 декабря 2010, «ВС трейд»
Видеокодек: MPEG-4 AVC/H.264
Битрейт видео: ~16,3 Мбит/сек
Размер кадра: 1920x1080
Качество видео: BDRip / за исходник спасибо:
Аудио №1: AC3 5.1 640 kbps - Русский
Аудио №2: AC3 5.1 640 kbps - Английский-

Media info:

Общее
Уникальный идентификатор : 237043279108815040809650058549570955761 (0xB254DFFBBFD7EEFC8DEA56747565E9F1)
Полное имя : H:\my films\SAW7_FIN_CHAPTER_3D.mkv
Формат : Matroska
Версия формата : Version 2
Размер файла : 11,3 Гбайт
Продолжительность : 1 ч. 30 м.
Общий поток : 17,9 Мбит/сек
Название фильма : SAW7_FIN_CHAPTER_3D_HO/U
Дата кодирования : UTC 2013-04-01 14:00:06
Программа кодирования : mkvmerge v5.7.0 ('The Whirlwind') built on Aug 7 2012 14:11:40
Библиотека кодирования : libebml v1.2.3 + libmatroska v1.3.0
Видео
Идентификатор : 1
Формат : AVC
Формат/Информация : Advanced Video Codec
Профиль формата : High@L4.1
Параметр CABAC формата : Да
Параметр ReFrames формата : 4 кадра
Идентификатор кодека : V_MPEG4/ISO/AVC
Продолжительность : 1 ч. 30 м.
Битрейт : 16,3 Мбит/сек
Ширина : 1920 пикселей
Высота : 1080 пикселей
Соотношение сторон : 16:9
Режим частоты кадров : Постоянный
Частота кадров : 23,976 кадра/сек
Цветовое пространство : YUV
Субдискретизация насыщенности : 4:2:0
Битовая глубина : 8 бит
Тип развёртки : Прогрессивная
Бит/(Пиксели*Кадры) : 0.328
Размер потока : 10,3 Гбайт (91%)
Заголовок : rip by I/N
Библиотека кодирования : x264 core 128 r2216M 198a7ea
Настройки программы : cabac=1 / ref=4 / deblock=1:-3:-3 / analyse=0x3:0x133 / me=umh / subme=9 / psy=1 / psy_rd=1.00:0.15 / mixed_ref=1 / me_range=32 / chroma_me=1 / trellis=2 / 8x8dct=1 / cqm=0 / deadzone=21,11 / fast_pskip=1 / chroma_qp_offset=-3 / threads=4 / lookahead_threads=1 / sliced_threads=0 / nr=0 / decimate=1 / interlaced=0 / bluray_compat=0 / constrained_intra=0 / bframes=4 / b_pyramid=2 / b_adapt=2 / b_bias=2 / direct=3 / weightb=1 / open_gop=0 / weightp=2 / keyint=230 / keyint_min=23 / scenecut=40 / intra_refresh=0 / rc_lookahead=60 / rc=crf / mbtree=1 / crf=18.0 / qcomp=0.60 / qpmin=2 / qpmax=69 / qpstep=6 / vbv_maxrate=40000 / vbv_bufsize=30000 / crf_max=30.0 / nal_hrd=none / ip_ratio=1.40 / aq=1:0.70
Default : Да
Forced : Да
Аудио #1
Идентификатор : 2
Формат : AC-3
Формат/Информация : Audio Coding 3
Расширение режима : CM (complete main)
Параметр Endianness формата : Big
Идентификатор кодека : A_AC3
Продолжительность : 1 ч. 30 м.
Вид битрейта : Постоянный
Битрейт : 640 Кбит/сек
Каналы : 6 каналов
Расположение каналов : Front: L C R, Side: L R, LFE
Частота : 48,0 КГц
Битовая глубина : 16 бит
Метод сжатия : С потерями
Размер потока : 413 Мбайт (4%)
Язык : Russian
Default : Да
Forced : Да
Аудио #2
Идентификатор : 3
Формат : AC-3
Формат/Информация : Audio Coding 3
Расширение режима : CM (complete main)
Параметр Endianness формата : Big
Идентификатор кодека : A_AC3
Продолжительность : 1 ч. 30 м.
Вид битрейта : Постоянный
Битрейт : 640 Кбит/сек
Каналы : 6 каналов
Расположение каналов : Front: L C R, Side: L R, LFE
Частота : 48,0 КГц
Битовая глубина : 16 бит
Метод сжатия : С потерями
Размер потока : 413 Мбайт (4%)
Язык : English
Default : Нет
Forced : Нет
Меню
00:00:00.000 : en:(01)00:00:00:000
00:05:13.479 : en:(02)00:05:13:479
00:12:58.652 : en:(03)00:12:58:652
00:17:16.785 : en:(04)00:17:16:785
00:22:07.743 : en:(05)00:22:07:743
00:27:29.230 : en:(06)00:27:29:230
00:36:06.956 : en:(07)00:36:06:956
00:43:04.206 : en:(08)00:43:04:206
00:47:54.413 : en:(09)00:47:54:413
00:52:00.826 : en:(10)00:52:00:826
00:57:09.926 : en:(11)00:57:09:926
01:03:09.076 : en:(12)01:03:09:076
01:10:28.891 : en:(13)01:10:28:891
01:14:13.574 : en:(14)01:14:13:574
01:19:01.153 : en:(15)01:19:01:153
01:23:47.188 : en:(16)01:23:47:188
01:30:10.988 : en:(17)01:30:10:988
Проверено на встроенном плейере ТВ Samsung-D6500Скриншоты:

Время раздачи: 24/7 - круглосуточно до 10 скачавших

[Цитировать]



Показать сообщения:    

Текущее время: 09-Дек 16:34

Часовой пояс: UTC + 3


Вы не можете начинать темы
Вы не можете отвечать на сообщения
Вы не можете редактировать свои сообщения
Вы не можете удалять свои сообщения
Вы не можете голосовать в опросах
Вы не можете прикреплять файлы к сообщениям
Вы не можете скачивать файлы

!ВНИМАНИЕ!
Сайт не предоставляет электронные версии произведений, а занимается лишь коллекционированием и каталогизацией ссылок, присылаемых и публикуемых на форуме нашими читателями. Если вы являетесь правообладателем какого-либо представленного материала и не желаете, чтобы ссылка на него находилась в нашем каталоге, свяжитесь с нами, и мы незамедлительно удалим ее. Файлы для обмена на трекере предоставлены пользователями сайта, и администрация не несет ответственности за их содержание. Просьба не заливать файлы, защищенные авторскими правами, а также файлы нелегального содержания!