[ Сегодня идет свободное скачивание без начисления Download ]


Статистика раздачи
Нет
 
   
 
Top  
 
 
-Хроники Нарнии: Покоритель Зари / The Chronicles of Narnia: The Voyage of the Dawn Treader (2010) BDRip-«Назад в волшебство. Назад к надежде. Назад в Нарнию.»- Русское название: Хроники Нарнии: Покоритель Зари
Оригинальное название: The Chronicles of Narnia: The Voyage of the Dawn Treader
Год выпуска: 2010
Жанр: Фэнтези, Приключения, Семейный
Описание фильма:
Эдмунд, Люси, их кузен Юстас и король Каспиан отплывают на корабле «Покоритель Зари» на поиски друзей отца Каспиана — семи лордов: Ревелиана, Берна, Аргоза, Мавроморна, Октезиана, Рестимара и Рупа, изгнанных во время недолгого правления тирана Мираза.-Режиссер: Майкл Эптед
Актеры: Бен Барнс, Скандар Кейнс, Джорджи Хенли, Уилл Поултер, Гари Свит, Тильда Суинтон, Анна Попплуэлл, Уильям Моусли, Лиам Нисон, Саймон Пегг
Роли дубдировали: Александр Трофимов, Андрей Кошкин, Александра Матвеева, Никита Брага, Ирина Ракшина
Продолжительность: 01:52:40
Перевод: Дублированный- -Дата мировой премьеры: 2 декабря 2010
Дата российской премьеры: 9 декабря 2010, «Двадцатый Век Фокс СНГ»
Дата выхода DVD релиза: 27 января 2011, «Двадцатый Век Фокс СНГ»
Дата выхода BLU-RAY релиза: 19 мая 2011, «Двадцатый Век Фокс СНГ»
Видеокодек: MPEG-4 AVC/H.264
Битрейт видео: ~15,7 Мбит/сек
Размер кадра: 1920x1080
Качество видео: BDRip
Порядок ракурсов: Правый ракурс первый
Аудио №1: AC3 5.1 640 kbps - Русский
Аудио №2: AC3 5.1 640 kbps - Английский-

Media info:

Общее
Уникальный идентификатор : 172363244950969280654815935715059216629 (0x81ABF417058A52FBBDEAE3453120B0F5)
Полное имя : H:\my films\NARNIA_3D.mkv
Формат : Matroska
Версия формата : Version 2
Размер файла : 13,7 Гбайт
Продолжительность : 1 ч. 52 м.
Общий поток : 17,4 Мбит/сек
Название фильма : NARNIA_3D_HO/U
Дата кодирования : UTC 2013-04-06 05:25:49
Программа кодирования : mkvmerge v5.7.0 ('The Whirlwind') built on Aug 7 2012 14:11:40
Библиотека кодирования : libebml v1.2.3 + libmatroska v1.3.0
Видео
Идентификатор : 1
Формат : AVC
Формат/Информация : Advanced Video Codec
Профиль формата : [email protected]
Параметр CABAC формата : Да
Параметр ReFrames формата : 4 кадра
Идентификатор кодека : V_MPEG4/ISO/AVC
Продолжительность : 1 ч. 52 м.
Битрейт : 15,7 Мбит/сек
Ширина : 1920 пикселей
Высота : 1080 пикселей
Соотношение сторон : 16:9
Режим частоты кадров : Постоянный
Частота кадров : 23,976 кадра/сек
Цветовое пространство : YUV
Субдискретизация насыщенности : 4:2:0
Битовая глубина : 8 бит
Тип развёртки : Прогрессивная
Бит/(Пиксели*Кадры) : 0.316
Размер потока : 12,4 Гбайт (91%)
Заголовок : rip by I/N
Библиотека кодирования : x264 core 128 r2216M 198a7ea
Настройки программы : cabac=1 / ref=4 / deblock=1:-3:-3 / analyse=0x3:0x133 / me=umh / subme=9 / psy=1 / psy_rd=1.00:0.15 / mixed_ref=1 / me_range=32 / chroma_me=1 / trellis=2 / 8x8dct=1 / cqm=1 / deadzone=21,11 / fast_pskip=1 / chroma_qp_offset=-3 / threads=4 / lookahead_threads=1 / sliced_threads=0 / nr=0 / decimate=1 / interlaced=0 / bluray_compat=0 / constrained_intra=0 / bframes=4 / b_pyramid=2 / b_adapt=2 / b_bias=2 / direct=3 / weightb=1 / open_gop=0 / weightp=2 / keyint=230 / keyint_min=23 / scenecut=40 / intra_refresh=0 / rc_lookahead=60 / rc=crf / mbtree=1 / crf=17.0 / qcomp=0.60 / qpmin=4 / qpmax=69 / qpstep=4 / vbv_maxrate=40000 / vbv_bufsize=30000 / crf_max=30.0 / nal_hrd=none / ip_ratio=1.40 / aq=1:0.70
Default : Да
Forced : Да
Аудио #1
Идентификатор : 2
Формат : AC-3
Формат/Информация : Audio Coding 3
Расширение режима : CM (complete main)
Параметр Endianness формата : Big
Идентификатор кодека : A_AC3
Продолжительность : 1 ч. 52 м.
Вид битрейта : Постоянный
Битрейт : 640 Кбит/сек
Каналы : 6 каналов
Расположение каналов : Front: L C R, Side: L R, LFE
Частота : 48,0 КГц
Битовая глубина : 16 бит
Метод сжатия : С потерями
Размер потока : 516 Мбайт (4%)
Язык : Russian
Default : Да
Forced : Да
Аудио #2
Идентификатор : 3
Формат : AC-3
Формат/Информация : Audio Coding 3
Расширение режима : CM (complete main)
Параметр Endianness формата : Big
Идентификатор кодека : A_AC3
Продолжительность : 1 ч. 52 м.
Вид битрейта : Постоянный
Битрейт : 640 Кбит/сек
Каналы : 6 каналов
Расположение каналов : Front: L C R, Side: L R, LFE
Частота : 48,0 КГц
Битовая глубина : 16 бит
Метод сжатия : С потерями
Размер потока : 516 Мбайт (4%)
Язык : English
Default : Нет
Forced : Нет
Меню
00:00:00.000 : en:00:00:00.000
00:04:28.477 : en:00:04:28.477
00:07:37.040 : en:00:07:37.040
00:11:58.259 : en:00:11:58.259
00:15:22.463 : en:00:15:22.463
00:20:06.288 : en:00:20:06.288
00:27:14.508 : en:00:27:14.508
00:32:20.689 : en:00:32:20.689
00:36:46.371 : en:00:36:46.371
00:39:51.598 : en:00:39:51.598
00:41:56.389 : en:00:41:56.389
00:45:21.928 : en:00:45:21.928
00:47:51.494 : en:00:47:51.494
00:52:52.544 : en:00:52:52.544
00:58:04.940 : en:00:58:04.940
01:01:51.333 : en:01:01:51.333
01:05:43.731 : en:01:05:43.731
01:08:20.805 : en:01:08:20.805
01:10:49.912 : en:01:10:49.912
01:16:55.027 : en:01:16:55.027
01:20:23.569 : en:01:20:23.569
01:23:48.315 : en:01:23:48.315
01:28:23.507 : en:01:28:23.507
01:32:30.462 : en:01:32:30.462
01:35:58.753 : en:01:35:58.753
01:38:07.465 : en:01:38:07.465
01:40:55.549 : en:01:40:55.549
01:45:06.967 : en:01:45:06.967
Проверено на встроенном плейере ТВ Samsung-D6500Скриншоты:

Время раздачи: 24/7 - круглосуточно до 10 скачавших

[Цитировать]



Показать сообщения:    

Текущее время: 04-Дек 19:16

Часовой пояс: UTC + 3


Вы не можете начинать темы
Вы не можете отвечать на сообщения
Вы не можете редактировать свои сообщения
Вы не можете удалять свои сообщения
Вы не можете голосовать в опросах
Вы не можете прикреплять файлы к сообщениям
Вы не можете скачивать файлы

!ВНИМАНИЕ!
Сайт не предоставляет электронные версии произведений, а занимается лишь коллекционированием и каталогизацией ссылок, присылаемых и публикуемых на форуме нашими читателями. Если вы являетесь правообладателем какого-либо представленного материала и не желаете, чтобы ссылка на него находилась в нашем каталоге, свяжитесь с нами, и мы незамедлительно удалим ее. Файлы для обмена на трекере предоставлены пользователями сайта, и администрация не несет ответственности за их содержание. Просьба не заливать файлы, защищенные авторскими правами, а также файлы нелегального содержания!