[ Сегодня идет свободное скачивание без начисления Download ]


Статистика раздачи
Нет
 
   
 
Top  
 
 
-Гостья / The Host (2013) HDTVRip
«You will be one of us.»
- Русское название: Гостья
Оригинальное название: The Host
Год выпуска: 2013
Производство: США / Chockstone Pictures, Nick Wechsler Productions, Silver Reel
Жанр: Фантастика, Драма, Мелодрама-Перевод: Дублированный [чистый звук]
Субтитры: Отсутствуют-Дата мировой премьеры: 22 марта 2013
Дата российской премьеры: 28 марта 2013, «West»-Режиссер: Эндрю Никкол
Актеры: Сирша Ронан, Макс Айронс, Джейк Эйбел, Дайан Крюгер, Уильям Хёрт, Чандлер Кентербери, Фрэнсис Фишер, Скотт Лоуренс, Бойд Холбрук, Мустафа Харрис-Описание фильма:
Земля — в опасности! Наше место скоро займут Души — лишенные плотской оболочки пришельцы, вытесняющие из человеческих тел разум и замещающие его разумом собственным. Большая часть человечества уже погибла. Немногие выжившие скрываются в жалкой попытке отсрочить неизбежное… Теперь Душа пытается захватить тело юной Мелани. Однако происходит неожиданное: Мелани и ее Душа вынуждены сосуществовать в одном теле. Гостье надлежало выследить и выдать землян-повстанцев, с которыми связана Мелани, но она помогает своей носительнице.- -Продолжительность: 02:10:37
Качество видео: HDTVRip-Видеокодек: MPEG-4 AVC/H.264
Битрейт видео: ~3421 Кбит/сек
Размер кадра: 1264x480
Аудио#1: Русский - AC3, 256 kb/s (2 ch)
Аудио#2: Английский - AC3, 448 kb/s (2 ch)

MediaInfo

Общее
Уникальный идентификатор : 233374667309861553318447722741613243428 (0xAF925374F49252AC8E2AA1493690AC24)
Полное имя : D:\Торрент раздача\Gostya.2013.D.HDTV.720p.mkv
Формат : Matroska
Версия формата : Version 2
Размер файла : 3,84 Гбайт
Продолжительность : 2 ч. 10 м.
Общий поток : 4209 Кбит/сек
Дата кодирования : UTC 2013-04-21 06:49:44
Программа кодирования : mkvmerge v2.9.8 ('C'est le bon') built on Nov 20 2009 13:01:15
Библиотека кодирования : libebml v0.7.9 + libmatroska v0.8.1
Видео
Идентификатор : 1
Формат : AVC
Формат/Информация : Advanced Video Codec
Профиль формата : [email protected]
Параметр CABAC формата : Да
Параметр ReFrames формата : 4 кадра
Идентификатор кодека : V_MPEG4/ISO/AVC
Продолжительность : 2 ч. 10 м.
Битрейт : 3421 Кбит/сек
Ширина : 1264 пикселя
Высота : 480 пикселей
Соотношение сторон : 2,633
Режим частоты кадров : Постоянный
Частота кадров : 29,970 кадров/сек
Цветовое пространство : YUV
Субдискретизация насыщенности : 4:2:0
Битовая глубина : 8 бит
Тип развёртки : Прогрессивная
Бит/(Пиксели*Кадры) : 0.188
Размер потока : 3,12 Гбайт (81%)
Заголовок : The.Host.2013.AVC.HDTVRip.(720p)
Язык : English
Default : Нет
Forced : Нет
Аудио #1
Идентификатор : 2
Формат : AC-3
Формат/Информация : Audio Coding 3
Расширение режима : CM (complete main)
Параметр Endianness формата : Big
Идентификатор кодека : A_AC3
Продолжительность : 2 ч. 10 м.
Вид битрейта : Постоянный
Битрейт : 256 Кбит/сек
Каналы : 2 канала
Расположение каналов : Front: L R
Частота : 48,0 КГц
Битовая глубина : 16 бит
Метод сжатия : С потерями
Задержка видео : 6 мс.
Размер потока : 239 Мбайт (6%)
Заголовок : Дублированный [чистый звук]
Язык : Russian
Default : Нет
Forced : Нет
Аудио #2
Идентификатор : 3
Формат : AC-3
Формат/Информация : Audio Coding 3
Расширение режима : CM (complete main)
Параметр Endianness формата : Big
Идентификатор кодека : A_AC3
Продолжительность : 2 ч. 10 м.
Вид битрейта : Постоянный
Битрейт : 448 Кбит/сек
Каналы : 2 канала
Расположение каналов : Front: L R
Частота : 44,1 КГц
Битовая глубина : 16 бит
Метод сжатия : С потерями
Задержка видео : 21 мс.
Размер потока : 418 Мбайт (11%)
Заголовок : Оригинал
Язык : English
Default : Нет
Forced : Нет
Скриншоты:
Время раздачи: 24/7

[Цитировать]

Топик был перенесен из форума Новинки кинопроката в форум Фантастика
Henkok



Показать сообщения:    

Текущее время: 06-Дек 08:51

Часовой пояс: UTC + 3


Вы не можете начинать темы
Вы не можете отвечать на сообщения
Вы не можете редактировать свои сообщения
Вы не можете удалять свои сообщения
Вы не можете голосовать в опросах
Вы не можете прикреплять файлы к сообщениям
Вы не можете скачивать файлы

!ВНИМАНИЕ!
Сайт не предоставляет электронные версии произведений, а занимается лишь коллекционированием и каталогизацией ссылок, присылаемых и публикуемых на форуме нашими читателями. Если вы являетесь правообладателем какого-либо представленного материала и не желаете, чтобы ссылка на него находилась в нашем каталоге, свяжитесь с нами, и мы незамедлительно удалим ее. Файлы для обмена на трекере предоставлены пользователями сайта, и администрация не несет ответственности за их содержание. Просьба не заливать файлы, защищенные авторскими правами, а также файлы нелегального содержания!