[ Сегодня идет свободное скачивание без начисления Download ]


Статистика раздачи
Нет
 
   
 
Top  
 
 
-Город порока / Broken City (2013) HDRip- Русское название: Город порока
Оригинальное название: Broken City
Год выпуска: 2013
Производство: США / Regency Enterprises, Emmett/Furla Films, Black Bear Pictures
Жанр: Триллер, Драма, Криминал
Перевод: Дублированный [Чистый звук]
Субтитры: Отсутствуют-Дата мировой премьеры: 18 января 2013-Режиссер: Аллен Хьюз
Продюсер: Рэндолл Эмметт, Джордж Фурла, Аллен Хьюз
Актеры: Марк Уолберг, Рассел Кроу, Кэтрин Зета-Джонс, Барри Пеппер, Кайл Чандлер, Натали Мартинез, Джеффри Райт, Алона Тал, Майкл Бич, Джеймс Рэнсон-Описание фильма:
История бывшего полицейского Билли Таггерта. Восемь лет назад он стрелял в 16-летнего подростка, за что был уволен из полиции. Теперь Таггерт работает частным детективом, которого нанимает мэр, чтобы тот разузнал, не изменяет ли ему жена. Однако расследование адюльтера супруги мэра выливается в настоящий скандал. Человек, с которым жена мэра изменяла мужу, убит, а на поверхность всплывает нехорошая история с недвижимостью.- -Продолжительность: 01:48:56
Качество видео: HDRip-Видеокодек: Xvid
Битрейт видео: ~814 Кбит/сек
Размер кадра: 720x304
Аудиокодек: MP3 (2 ch)
Битрейт аудио: 128 Кбит/сек

MediaInfo

Общее
Полное имя : D:\Торрент раздача\Gorod.poroka.2013.D.HDRip.avi
Формат : AVI
Формат/Информация : Audio Video Interleave
Размер файла : 740 Мбайт
Продолжительность : 1 ч. 48 м.
Общий поток : 952 Кбит/сек
Программа кодирования : VirtualDubMod 1.5.10.2 (build 2542/release)
Библиотека кодирования : VirtualDub build 32661/release
Видео
Идентификатор : 0
Формат : MPEG-4 Visual
Профиль формата : Advanced [email protected]
Параметр BVOP формата : 2
Параметр QPel формата : Нет
Параметр GMC формата : Без точки перехода
Параметр матрицы формата : Default (H.263)
Режим смешивания : Сжатый битовый поток
Идентификатор кодека : XVID
Идентификатор кодека/Подсказка : XviD
Продолжительность : 1 ч. 48 м.
Битрейт : 814 Кбит/сек
Ширина : 720 пикселей
Высота : 304 пикселя
Соотношение сторон : 2,35:1
Частота кадров : 23,976 кадра/сек
Цветовое пространство : YUV
Субдискретизация насыщенности : 4:2:0
Битовая глубина : 8 бит
Тип развёртки : Прогрессивная
Метод сжатия : С потерями
Бит/(Пиксели*Кадры) : 0.155
Размер потока : 633 Мбайт (86%)
Библиотека кодирования : XviD 64
Аудио
Идентификатор : 1
Формат : MPEG Audio
Версия формата : Version 1
Профиль формата : Layer 3
Режим : Joint stereo
Расширение режима : MS Stereo
Идентификатор кодека : 55
Идентификатор кодека/Подсказка : MP3
Продолжительность : 1 ч. 48 м.
Вид битрейта : Постоянный
Битрейт : 128 Кбит/сек
Каналы : 2 канала
Частота : 48,0 КГц
Метод сжатия : С потерями
Размер потока : 99,5 Мбайт (13%)
Выравнивание : Разделение по промежуткам
Продолжительность промежутка : 42 мс. (1,00 видеокадр)
Время предзагрузки промежутка : 500 мс.
Библиотека кодирования : LAME3.98.2
Скриншоты:
Время раздачи: 08:00-23:30 (МСК)

[Цитировать]

Топик был перенесен из форума Новинки кинопроката в форум Триллер
Henkok



Показать сообщения:    

Текущее время: 04-Дек 11:14

Часовой пояс: UTC + 3


Вы не можете начинать темы
Вы не можете отвечать на сообщения
Вы не можете редактировать свои сообщения
Вы не можете удалять свои сообщения
Вы не можете голосовать в опросах
Вы не можете прикреплять файлы к сообщениям
Вы не можете скачивать файлы

!ВНИМАНИЕ!
Сайт не предоставляет электронные версии произведений, а занимается лишь коллекционированием и каталогизацией ссылок, присылаемых и публикуемых на форуме нашими читателями. Если вы являетесь правообладателем какого-либо представленного материала и не желаете, чтобы ссылка на него находилась в нашем каталоге, свяжитесь с нами, и мы незамедлительно удалим ее. Файлы для обмена на трекере предоставлены пользователями сайта, и администрация не несет ответственности за их содержание. Просьба не заливать файлы, защищенные авторскими правами, а также файлы нелегального содержания!