[ Сегодня идет свободное скачивание без начисления Download ]


Статистика раздачи
Нет
 
   
 
Top  
 
 
Хороший докторThe Good Doctor«Надо уметь остановиться»- Страна: США
Жанр: триллер, драма
Год выпуска: 2011
Продолжительность: 01:30:49-Перевод: Профессиональный (многоголосый, закадровый) [лицензия]
Субтитры: нет-Режиссер: Лэнс Дэйли / Lance Daly-В ролях: Орландо Блум, Райли Кеох, Тараджи П. Хенсон, Роб Морроу, Майкл Пенья, Трой Гэрити, Молли Прайс, Уэйд Уильямс, Сорел Кэрредин, Гэри Сервантес, Моник Кёрнен, Жан Ст. Джеймс-Описание: Молодой врач стремится произвести впечатление на свое начальство и коллег. Когда в клинику, где он работает, попадает 18-летняя пациентка с инфекцией почек, доктор вмешивается в ее лечение, чтобы надолго оставить девушку в больнице.-
MPAA: PG-13 - Детям до 13 лет просмотр не желателен
-

Доп. Информация

Сценарий: Джон Энбом / John Enbom
Продюсер: Орландо Блум / Orlando Bloom, Дэн Этеридж / Dan Etheridge, Джонатан Кинг / Jonathan King, Макдара Келлехер / Macdara Kelleher, Джулия Лебедев / Julia Lebedev
Оператор: Ярон Орбах / Yaron Orbach
Композитор: Брайан Бирн / Brian Byrne
Бюджет: $6 000 000
Сборы в США: $5 206
Сборы в России: $8 797
Мировая премьера: 23 апреля 2011
Релиз на DVD: 24 апреля 2013, «Кармен Видео», «Новый Диск»
-Качество: HDRip [Рип с BDRip 720p]
Контейнер: AVI
Видео: XviD, 720x384 (1.875), 1760 kbps, 23,976 fps, 0,266 bpp
Аудио: AC3 / 5.1 / 48 kHz / 384 kbps / 16 bit-Дата премьеры (мир): 23 апреля 2011
Дата премьеры (РФ):4 апреля 2013, «Другое кино»

Знаете ли Вы, что...

  • Первоначально фильму присвоили рейтинг R, но после апелляции все же дали PG-13.

Media Info

General
Complete name : G:\Horoshij.doktor.2011.P_HDRip.avi
Format : AVI
Format/Info : Audio Video Interleave
File size : 1.37 GiB
Duration : 1h 30mn
Overall bit rate : 2 154 Kbps
Movie name : Horoshij.doktor.2011.P.HDRip
Genre : Drama / Thriller
Writing application : VirtualDubMod 1.5.10.2 (build 2540/release)
Original source form/Name : Movie
Video
ID : 0
Format : MPEG-4 Visual
Format profile : Advanced [email protected]
Format settings, BVOP : 1
Format settings, QPel : No
Format settings, GMC : No warppoints
Format settings, Matrix : Custom
Codec ID : XVID
Codec ID/Hint : XviD
Duration : 1h 30mnBit rate : 1 761 Kbps
Width : 720 pixels
Height : 384 pixels
Display aspect ratio : 1.875
Frame rate : 23.976 fps
Color space : YUV
Chroma subsampling : 4:2:0
Bit depth : 8 bits
Scan type : Progressive
Compression mode : Lossy
Bits/(Pixel*Frame) : 0.266
Stream size : 1.12 GiB (82%)
Writing library : XviD 1.2.1 (UTC 2008-12-04)
Audio
ID : 1
Format : AC-3
Format/Info : Audio Coding 3
Mode extension : CM (complete main)
Codec ID : 2000
Duration : 1h 30mn
Bit rate mode : Constant
Bit rate : 384 Kbps
Channel(s) : 6 channels
Channel positions : Front: L C R, Side: L R, LFE
Sampling rate : 48.0 KHz
Bit depth : 16 bits
Compression mode : Lossy
Stream size : 249 MiB (18%)
Alignment : Split accross interleaves
Interleave, duration : 42 ms (1.00 video frame)
Interleave, preload duration : 500 ms

Скриншот с названием фильма

Скриншоты

[Цитировать]

Топик был перенесен из форума Новинки кинопроката в форум Триллер
Henkok



Показать сообщения:    

Текущее время: 05-Дек 23:44

Часовой пояс: UTC + 3


Вы не можете начинать темы
Вы не можете отвечать на сообщения
Вы не можете редактировать свои сообщения
Вы не можете удалять свои сообщения
Вы не можете голосовать в опросах
Вы не можете прикреплять файлы к сообщениям
Вы не можете скачивать файлы

!ВНИМАНИЕ!
Сайт не предоставляет электронные версии произведений, а занимается лишь коллекционированием и каталогизацией ссылок, присылаемых и публикуемых на форуме нашими читателями. Если вы являетесь правообладателем какого-либо представленного материала и не желаете, чтобы ссылка на него находилась в нашем каталоге, свяжитесь с нами, и мы незамедлительно удалим ее. Файлы для обмена на трекере предоставлены пользователями сайта, и администрация не несет ответственности за их содержание. Просьба не заливать файлы, защищенные авторскими правами, а также файлы нелегального содержания!