[ Сегодня идет свободное скачивание без начисления Download ]


Статистика раздачи
Нет
 
   
 
Top  
 
 
-Тайна перевала Дятлова / The Dyatlov Pass Incident (2013) BDRip- Русское название: Тайна перевала Дятлова
Оригинальное название: The Dyatlov Pass Incident
Год выпуска: 2013
Производство: Россия, США / Aldamisa Entertainment, Future Films, K. JAM Media, Midnight Sun Pictures, Нон-стоп Продакшн
Жанр: Ужасы, Триллер
Перевод: Многоголосый закадровый, профессиональный (лицензия)
Субтитры: Отсутствуют
Дата мировой премьеры: 28 февраля 2013
Дата российской премьеры: 28 февраля 2013, «Двадцатый Век Фокс СНГ», «A Company»
Дата выхода DVD релиза: 22 апреля 2013, «Новый Диск»
Режиссер: Ренни Харлин
Актеры: Джемма Аткинсон, Ричард Рейд, Мэтт Стокоу, Холли Госс, Райан Хоули, Люк Олбрайт, Анастасия Бурдина, Николай Бутенин, Валерий Федорович, Нелли Нилсен
Описание фильма:
Сюжет фильма основан на реальных событиях, произошедших в 1959-м году. В 2012-м году группа американских студентов, получив грант, отправляется на уральские горы, следуя тем же маршрутом, что и группа Дятлова, чтобы попытаться восстановить картину и разгадать причину таинственной, мистической и до сих пор не разгаданной гибели советских лыжников.

Продолжительность: 01:40:24
Качество видео: BDRip-AVC
Видео: MPEG-4 AVC/H.264, 1024x576 (16:9), 24.000 fps, 1699 Кbps, 0.120 bit/pixel
Аудио: 48 kHz, AC3 DD, 3/2 (L,C,R,l,r) + LFE ch, ~384.00 kbps avg

MI

Общее
Уникальный идентификатор : 195165637520149017345791832746594669306 (0x92D388D7B703067598478279A1B012FA)
Полное имя : Tajna.Perevala.Djatlova.2013.P.BDRip.x264.potroks.mkv
Формат : Matroska
Версия формата : Version 4 / Version 2
Размер файла : 1,46 Гбайт
Продолжительность : 1 ч. 40 м.
Общий поток : 2083 Кбит/сек
Название фильма : -=POTROKS=-
Дата кодирования : UTC 2013-04-19 19:50:24
Программа кодирования : mkvmerge v5.9.0 ('On The Loose') built on Dec 15 2012 16:39:58
Библиотека кодирования : libebml v1.3.0 + libmatroska v1.4.0
Видео
Идентификатор : 1
Формат : AVC
Формат/Информация : Advanced Video Codec
Профиль формата : High@L4.1
Параметр CABAC формата : Да
Параметр ReFrames формата : 13 кадров
Идентификатор кодека : V_MPEG4/ISO/AVC
Продолжительность : 1 ч. 40 м.
Битрейт : 1699 Кбит/сек
Ширина : 1024 пикселя
Высота : 576 пикселей
Соотношение сторон : 16:9
Режим частоты кадров : Постоянный
Частота кадров : 24,000 кадра/сек
Цветовое пространство : YUV
Субдискретизация насыщенности : 4:2:0
Битовая глубина : 8 бит
Тип развёртки : Прогрессивная
Бит/(Пиксели*Кадры) : 0.120
Размер потока : 1,16 Гбайт (80%)
Заголовок : The Dyatlov Pass Incident
Библиотека кодирования : x264 core 125 r2208 d9d2288
Настройки программы : cabac=1 / ref=13 / deblock=1:-3:-2 / analyse=0x3:0x133 / me=umh / subme=11 / psy=1 / psy_rd=0.96:0.02 / mixed_ref=1 / me_range=32 / chroma_me=1 / trellis=2 / 8x8dct=1 / cqm=0 / deadzone=21,11 / fast_pskip=0 / chroma_qp_offset=-3 / threads=6 / lookahead_threads=1 / sliced_threads=0 / nr=0 / decimate=1 / interlaced=0 / bluray_compat=0 / constrained_intra=0 / bframes=14 / b_pyramid=2 / b_adapt=2 / b_bias=0 / direct=3 / weightb=1 / open_gop=0 / weightp=2 / keyint=240 / keyint_min=24 / scenecut=40 / intra_refresh=0 / rc_lookahead=100 / rc=2pass / mbtree=1 / bitrate=1699 / ratetol=1.0 / qcomp=0.70 / qpmin=0 / qpmax=69 / qpstep=4 / cplxblur=20.0 / qblur=0.5 / vbv_maxrate=20000 / vbv_bufsize=25500 / nal_hrd=none / ip_ratio=1.35 / aq=1:0.90
Язык : English
Default : Да
Forced : Нет
Аудио
Идентификатор : 2
Формат : AC-3
Формат/Информация : Audio Coding 3
Расширение режима : CM (complete main)
Параметр Endianness формата : Big
Идентификатор кодека : A_AC3
Продолжительность : 1 ч. 40 м.
Вид битрейта : Постоянный
Битрейт : 384 Кбит/сек
Каналы : 6 каналов
Расположение каналов : Front: L C R, Side: L R, LFE
Частота : 48,0 КГц
Битовая глубина : 16 бит
Метод сжатия : С потерями
Размер потока : 276 Мбайт (18%)
Заголовок : MVO | DD 5.1 @ 384 kbps
Язык : Russian
Default : Да
Forced : Нет
Скриншоты:


Время раздачи: 24/7

[Цитировать]

Топик был перенесен из форума Новинки кинопроката в форум Ужасы
Henkok



Показать сообщения:    

Текущее время: 02-Дек 21:08

Часовой пояс: UTC + 3


Вы не можете начинать темы
Вы не можете отвечать на сообщения
Вы не можете редактировать свои сообщения
Вы не можете удалять свои сообщения
Вы не можете голосовать в опросах
Вы не можете прикреплять файлы к сообщениям
Вы не можете скачивать файлы

!ВНИМАНИЕ!
Сайт не предоставляет электронные версии произведений, а занимается лишь коллекционированием и каталогизацией ссылок, присылаемых и публикуемых на форуме нашими читателями. Если вы являетесь правообладателем какого-либо представленного материала и не желаете, чтобы ссылка на него находилась в нашем каталоге, свяжитесь с нами, и мы незамедлительно удалим ее. Файлы для обмена на трекере предоставлены пользователями сайта, и администрация не несет ответственности за их содержание. Просьба не заливать файлы, защищенные авторскими правами, а также файлы нелегального содержания!