[ Сегодня идет свободное скачивание без начисления Download ]


Статистика раздачи
Нет
 
   
 
Top  
 
 
-Агент под прикрытием / So Undercover (2012) HDRip-«Новое секретное оружие»- Русское название: Агент под прикрытием
Оригинальное название: So Undercover
Год выпуска: 2012
Производство: США / Exclusive Media Group, Crystal City Entertainment, Scarlet Fire Entertainment
Жанр: Боевик, Комедия
Перевод: Дублированный [лицензия]-Дата мировой премьеры: 6 декабря 2012
Дата российской премьеры: 3 января 2013-Режиссер: Том Вон
Продюсер: Тобин Армруст, Тиш Сайрус, Гай Ист
Актеры: Майли Сайрус, Джереми Пивен, Майк О’Мэлли, Джошуа Боуман, Лорен МакНайт, Келли Осборн, Элоиз Мамфорд, Меган Парк, Морган Кэлхун, Алексис Нэп-Описание фильма:
Главная героиня — Молли — частный детектив, нанятый ФБР для расследования одного важного дела. Девушка отправляется в колледж, чтобы под прикрытием попасть в тайное женское общество.- -Продолжительность: 01:33:38
Качество видео: HDRip-Видеокодек: Xvid
Битрейт видео: ~966 Кбит/сек
Размер кадра: 720x304
Аудиокодек: MP3 (2 ch)
Битрейт аудио: 128 Кбит/сек

MediaInfo

Общее
Полное имя : D:\Торрент раздача\Agent.pod.prikrytiem.2012.D.HDRip.avi
Формат : AVI
Формат/Информация : Audio Video Interleave
Размер файла : 739 Мбайт
Продолжительность : 1 ч. 33 м.
Общий поток : 1104 Кбит/сек
Название фильма : Agent.pod.prikrytiem.2012.D.HDRip
Жанр : Action | Comedy
Программа кодирования : VirtualDubMod 1.5.10.2 (build 2540/release)
Библиотека кодирования : VirtualDub build 32661/release
Формат оригинала/Имя : Movie
Видео
Идентификатор : 0
Формат : MPEG-4 Visual
Профиль формата : Advanced Simple@L5
Параметр BVOP формата : 2
Параметр QPel формата : Нет
Параметр GMC формата : Без точки перехода
Параметр матрицы формата : Default (H.263)
Режим смешивания : Сжатый битовый поток
Идентификатор кодека : XVID
Идентификатор кодека/Подсказка : XviD
Продолжительность : 1 ч. 33 м.
Битрейт : 966 Кбит/сек
Ширина : 720 пикселей
Высота : 304 пикселя
Соотношение сторон : 2,35:1
Частота кадров : 23,976 кадра/сек
Цветовое пространство : YUV
Субдискретизация насыщенности : 4:2:0
Битовая глубина : 8 бит
Тип развёртки : Прогрессивная
Метод сжатия : С потерями
Бит/(Пиксели*Кадры) : 0.184
Размер потока : 647 Мбайт (88%)
Библиотека кодирования : XviD 64
Аудио
Идентификатор : 1
Формат : MPEG Audio
Версия формата : Version 1
Профиль формата : Layer 3
Режим : Joint stereo
Идентификатор кодека : 55
Идентификатор кодека/Подсказка : MP3
Продолжительность : 1 ч. 33 м.
Вид битрейта : Постоянный
Битрейт : 128 Кбит/сек
Каналы : 2 канала
Частота : 48,0 КГц
Метод сжатия : С потерями
Размер потока : 85,7 Мбайт (12%)
Выравнивание : Разделение по промежуткам
Продолжительность промежутка : 42 мс. (1,00 видеокадр)
Время предзагрузки промежутка : 500 мс.
Библиотека кодирования : LAME3.98.2
Скриншоты:
Время раздачи: 24/7

[Цитировать]

Топик был перенесен из форума Новинки кинопроката в форум Боевик
Henkok



Показать сообщения:    

Текущее время: 09-Дек 12:36

Часовой пояс: UTC + 3


Вы не можете начинать темы
Вы не можете отвечать на сообщения
Вы не можете редактировать свои сообщения
Вы не можете удалять свои сообщения
Вы не можете голосовать в опросах
Вы не можете прикреплять файлы к сообщениям
Вы не можете скачивать файлы

!ВНИМАНИЕ!
Сайт не предоставляет электронные версии произведений, а занимается лишь коллекционированием и каталогизацией ссылок, присылаемых и публикуемых на форуме нашими читателями. Если вы являетесь правообладателем какого-либо представленного материала и не желаете, чтобы ссылка на него находилась в нашем каталоге, свяжитесь с нами, и мы незамедлительно удалим ее. Файлы для обмена на трекере предоставлены пользователями сайта, и администрация не несет ответственности за их содержание. Просьба не заливать файлы, защищенные авторскими правами, а также файлы нелегального содержания!