[ Сегодня идет свободное скачивание без начисления Download ]


Статистика раздачи
Нет
 
   
 
Top  
 
 
-Агент под прикрытием / So Undercover- Русское название: Агент под прикрытием
Оригинальное название: So Undercover
Год выпуска: 2012
Производство: США / Exclusive Media Group, Crystal City Entertainment, Scarlet Fire Entertainment
Жанр: Боевик, Комедия
Перевод: Дублированный [лицензия]
Дата мировой премьеры: 6 декабря 2012
Дата российской премьеры: 3 января 2013
Режиссер: Том Вон
Актеры: Майли Сайрус, Джереми Пивен, Майк О’Мэлли, Джошуа Боуман, Лорен МакНайт, Келли Осборн, Элоиз Мамфорд, Меган Парк, Морган Кэлхун, Алексис Нэп
Описание фильма:
Главная героиня — Молли — частный детектив, нанятый ФБР для расследования одного важного дела. Девушка отправляется в колледж, чтобы под прикрытием попасть в тайное женское общество.

Продолжительность: 01:33:38
Качество видео: HDRip
Видеокодек: Xvid
Битрейт видео: ~1684 kb/s
Размер кадра: 720x304
Аудиокодек: AC3 5.1
Битрейт аудио: 448 Kb/s
Сэмпл /-

MediaInfo

Полное имя : \\Pc-2\G\фильмы\Agent.pod.prikrytiem.2012.D.HDRip.avi
Формат : AVI
Формат/Информация : Audio Video Interleave
Размер файла : 1,46 Гбайт
Продолжительность : 1 ч. 33 м.
Общий поток : 2229 Кбит/сек
Название фильма : Agent.pod.prikrytiem.2012.D.HDRip
Жанр : Action | Comedy
Программа кодирования : VirtualDubMod 1.5.10.2 (build 2540/release)
Формат оригинала/Имя : Movie
Видео
Идентификатор : 0
Формат : MPEG-4 Visual
Профиль формата : Advanced Simple@L5
Параметр BVOP формата : 2
Параметр QPel формата : Нет
Параметр GMC формата : Без точки перехода
Параметр матрицы формата : Выборочная
Идентификатор кодека : XVID
Идентификатор кодека/Подсказка : XviD
Продолжительность : 1 ч. 33 м.
Битрейт : 1684 Кбит/сек
Ширина : 720 пикселей
Высота : 304 пикселя
Соотношение сторон : 2,35:1
Частота кадров : 23,976 кадра/сек
Цветовое пространство : YUV
Субдискретизация насыщенности : 4:2:0
Битовая глубина : 8 бит
Тип развёртки : Прогрессивная
Метод сжатия : С потерями
Бит/(Пиксели*Кадры) : 0.321
Размер потока : 1,10 Гбайт (76%)
Библиотека кодирования : XviD 65
Аудио
Идентификатор : 1
Формат : AC-3
Формат/Информация : Audio Coding 3
Расширение режима : CM (complete main)
Параметр Endianness формата : Big
Идентификатор кодека : 2000
Продолжительность : 1 ч. 33 м.
Вид битрейта : Постоянный
Битрейт : 448 Кбит/сек
Каналы : 6 каналов
Расположение каналов : Front: L C R, Side: L R, LFE
Частота : 48,0 КГц
Битовая глубина : 16 бит
Метод сжатия : С потерями
Размер потока : 300 Мбайт (20%)
Выравнивание : Разделение по промежуткам
-Время раздачи: 24/7 - круглосуточно

[Цитировать]

Топик был перенесен из форума Новинки кинопроката в форум Боевик
Henkok



Показать сообщения:    

Текущее время: 10-Дек 11:59

Часовой пояс: UTC + 3


Вы не можете начинать темы
Вы не можете отвечать на сообщения
Вы не можете редактировать свои сообщения
Вы не можете удалять свои сообщения
Вы не можете голосовать в опросах
Вы не можете прикреплять файлы к сообщениям
Вы не можете скачивать файлы

!ВНИМАНИЕ!
Сайт не предоставляет электронные версии произведений, а занимается лишь коллекционированием и каталогизацией ссылок, присылаемых и публикуемых на форуме нашими читателями. Если вы являетесь правообладателем какого-либо представленного материала и не желаете, чтобы ссылка на него находилась в нашем каталоге, свяжитесь с нами, и мы незамедлительно удалим ее. Файлы для обмена на трекере предоставлены пользователями сайта, и администрация не несет ответственности за их содержание. Просьба не заливать файлы, защищенные авторскими правами, а также файлы нелегального содержания!