[ Сегодня идет свободное скачивание без начисления Download ]


Статистика раздачи
Нет
 
   
 
Top  
 
 
-Угроза заражения / Infected (2013) WEB-DLRip-«Смотри, какую воду ты пьёшь...»- Русское название: Угроза заражения
Оригинальное название: Infected
Год выпуска: 2013
Производство: США
Жанр: Ужасы, Фантастика, Боевик
Перевод: Одноголосый закадровый, любительский [den904]
Субтитры: Вшитые отключаемые
Язык субтитров: Английский-Дата мировой премьеры: 9 апреля 2013-Режиссер: Гленн Чиано
Продюсер: Чад А. Верди, Николас Джон Билотта
Актеры: Майкл Мэдсен, Кристи Карлсон Романо, Уильям Форсайт, Джонни Чикко, Кристи Дрэйк, Дэвид Гир, Том ДеНуччи, Майкл Николози, Карлин Форнье, Майк Майклс-Описание фильма:
Отец и сын — любители поохотиться на оленей. Каждый год они приезжают в охотничий клуб, где встречают старых знакомых и вместе отправляются убивать невинных животных. И всё бы ничего если бы не одна заболевшая и пропавшая в лесах старушка с весьма странными симптомами… Мать одного и, по совместительству, жена второго главных героев по телевизору узнаёт об ужасном вирусе (бешенстве) который передаётся от оленей к людям и, конечно же, спешит предупредить своих близких. Жаль, что они уже ушли глубоко в лес и опробовали первую рогатую жертву на вкус.- -Продолжительность: 01:34:59
Качество видео: WEB-DLRip-Видеокодек: MPEG-4 AVC/H.264
Битрейт видео: ~3804 Кбит/сек
Размер кадра: 1280x720
Аудио#1: Русский (MP3, 2 ch, 192 Кбит/с)
Аудио#2: Английский (AC3, 6 ch, 384 Кбит/с)

MediaInfo

Общее
Уникальный идентификатор : 246629431378021041893951035481251787136 (0xB98B19C7DB2C598AB1CD26DB51423180)
Полное имя : D:\Торрент раздача\Infected.2013.WEB-DL.720p.mkv
Формат : Matroska
Версия формата : Version 4 / Version 2
Размер файла : 2,97 Гбайт
Продолжительность : 1 ч. 34 м.
Общий поток : 4468 Кбит/сек
Название фильма : Угроза заражения / Infected
Дата кодирования : UTC 2013-04-18 20:32:52
Программа кодирования : mkvmerge v6.1.0 ('Old Devil') built on Mar 2 2013 14:32:37
Библиотека кодирования : libebml v1.3.0 + libmatroska v1.4.0
Видео
Идентификатор : 1
Формат : AVC
Формат/Информация : Advanced Video Codec
Профиль формата : High@L3.1
Параметр CABAC формата : Нет
Параметр ReFrames формата : 2 кадра
Идентификатор кодека : V_MPEG4/ISO/AVC
Продолжительность : 1 ч. 34 м.
Битрейт : 3804 Кбит/сек
Ширина : 1280 пикселей
Высота : 720 пикселей
Соотношение сторон : 16:9
Режим частоты кадров : Постоянный
Частота кадров : 23,976 кадра/сек
Цветовое пространство : YUV
Субдискретизация насыщенности : 4:2:0
Битовая глубина : 8 бит
Тип развёртки : Прогрессивная
Бит/(Пиксели*Кадры) : 0.172
Размер потока : 2,52 Гбайт (85%)
Язык : English
Default : Да
Forced : Нет
Основные цвета : BT.709
Характеристики трансфера : BT.709
Коэффициенты матрицы : BT.709
Аудио #1
Идентификатор : 2
Формат : MPEG Audio
Версия формата : Version 1
Профиль формата : Layer 3
Режим : Joint stereo
Идентификатор кодека : A_MPEG/L3
Идентификатор кодека/Подсказка : MP3
Продолжительность : 1 ч. 34 м.
Вид битрейта : Постоянный
Битрейт : 192 Кбит/сек
Каналы : 2 канала
Частота : 48,0 КГц
Метод сжатия : С потерями
Размер потока : 130 Мбайт (4%)
Язык : Russian
Default : Да
Forced : Нет
Аудио #2
Идентификатор : 3
Формат : AC-3
Формат/Информация : Audio Coding 3
Расширение режима : CM (complete main)
Параметр Endianness формата : Big
Идентификатор кодека : A_AC3
Продолжительность : 1 ч. 34 м.
Вид битрейта : Постоянный
Битрейт : 384 Кбит/сек
Каналы : 6 каналов
Расположение каналов : Front: L C R, Side: L R, LFE
Частота : 48,0 КГц
Битовая глубина : 16 бит
Метод сжатия : С потерями
Размер потока : 261 Мбайт (9%)
Язык : English
Default : Нет
Forced : Нет
Текст
Идентификатор : 4
Формат : UTF-8
Идентификатор кодека : S_TEXT/UTF8
Идентификатор кодека/Информация : UTF-8 Plain Text
Язык : English
Default : Нет
Forced : Нет
Меню
00:00:00.000 : en:World Has Changed
00:09:20.000 : en:My Office
00:19:13.000 : en:Bad News
00:31:04.000 : en:Feast
00:39:01.000 : en:Madness
00:47:18.000 : en:Something Out There
01:00:45.000 : en:Changing
01:10:32.000 : en:Open the Door
01:20:04.000 : en:Overwhelmed
01:30:30.000 : en:Credits
Скриншоты:
Время раздачи: 24/7

[Цитировать]

Одноголосый закадровый, любительский [den904] Временный. Пора уже запомнить :ce:

[Цитировать]

Топик был перенесен из форума Новинки кинопроката в форум Ужасы
Henkok



Показать сообщения:    

Текущее время: 11-Дек 13:00

Часовой пояс: UTC + 3


Вы не можете начинать темы
Вы не можете отвечать на сообщения
Вы не можете редактировать свои сообщения
Вы не можете удалять свои сообщения
Вы не можете голосовать в опросах
Вы не можете прикреплять файлы к сообщениям
Вы не можете скачивать файлы

!ВНИМАНИЕ!
Сайт не предоставляет электронные версии произведений, а занимается лишь коллекционированием и каталогизацией ссылок, присылаемых и публикуемых на форуме нашими читателями. Если вы являетесь правообладателем какого-либо представленного материала и не желаете, чтобы ссылка на него находилась в нашем каталоге, свяжитесь с нами, и мы незамедлительно удалим ее. Файлы для обмена на трекере предоставлены пользователями сайта, и администрация не несет ответственности за их содержание. Просьба не заливать файлы, защищенные авторскими правами, а также файлы нелегального содержания!