[ Сегодня идет свободное скачивание без начисления Download ]


Статистика раздачи
Нет
 
   
 
Top  
 
 
Информация о фильме
Название: Смертельная гонка
Оригинальное название: Death Race
Год выхода: 2008
Жанр: боевик, фантастика, триллер
Режиссер: Пол У.С. Андерсон
В ролях: Джейсон Стэйтем, Джоан Аллен, Йен МакШейн, Тайриз Гибсон, Натали Мартинез, Макс Райан, Джейсон Кларк, Фредерик Колер, Джейкоб Варгас, Джастин Мэдер, Роберт ЛаСардо, Робин Шоу, Бенц Антуан, Дэнни Бланко, Кристиан Пол, Яная Стефенс, Джон Фэллон, Брюс МакФи, Кори Фэнти, Расселл Феррье, Анна-Мария Францис Лиа, Дэн Джиннотте, Марселло Безина, Дэвид Кэрредин, Нир Ассияг, Меланта Блекторн, Лиди Буней, Рут Чианг, Кэролин Дэй, Мари Френс Денонкорт, Джир Джилис, Натали Джирард, Ларри Голдштейн, Шарлин Ройер
О фильме:
Трехкратный чемпион-гонщик Дженсен Эймс посажен в тюрьму за убийство, которого не совершал. Вместо того, чтобы выпустить его на свободу, тюремщики заставляют его вместе с самыми отъявленными преступниками участвовать в кровавом состязании. Оказавшись за рулем чудовищного автомобиля, оборудованного автоматами, огнеметами и гранатометами, этот отчаянный человек разрушит все на своем пути, чтобы выиграть самую зрелищную гонку на выживание на Земле.

Страна: США, Германия, Великобритания
Студия: Universal Pictures, Relativity Media, Cruise/Wagner Productions, H2S2 Filmproduktionsgesellschaft, Scion Films, Impact Pictures
Продолжительность: 01:50:46
Перевод: Дублированный, профессиональный (многоголосый закадровый), авторский (одноголосый закадровый)
Файл
Кодек: h.264
Качество: BDRip-AVC
Видео: 2801 Кбит/с, 1024x436, 23.976 кадр/с
Звук:
• №1: Русский (AC3, 6 ch, 384 Кбит/с) / Дублированный
• №2: Русский (AC3, 6 ch, 384 Кбит/с) / Профессиональный многоголосый [LostFilm]
• №3: Русский (AC3, 6 ch, 384 Кбит/с) / Авторский одноголосый [Андрей Гаврилов]
• №4: Русский (AC3, 6 ch, 384 Кбит/с) / Авторский одноголосый [Владимир Королев]
• №5: Английский (AC3, 6 ch, 384 Кбит/с)
Субтитры:
• №1: Русские [Киномания]
• №2: Русские [Ready]
• №3: Английские
• №4: Русские [комментарии №1, Пол У.С. Андерсон, режиссер]
• №5: Русские [комментарии №2, продюсеры, сценаристы, ...]

MediaInfo и x264 log

Полное имя : Smertelnaya.gonka.2008.x264.BDRip.(AVC).0ptimus.mkv
Формат : Matroska
Версия формата : Version 4 / Version 2
Размер файла : 3,65 Гбайт
Продолжительность : 1 ч. 50 м.
Общий поток : 4713 Кбит/сек
Название фильма : Смертельная гонка (Расширенная версия) | Death Race (Unrated) [2008] -=BDRip (AVC) by 0ptimus=-
Дата кодирования : UTC 2013-04-24 17:07:16
Программа кодирования : mkvmerge v6.1.0 ('Old Devil') built on Mar 2 2013 14:32:37
Библиотека кодирования : libebml v1.3.0 + libmatroska v1.4.0
Видео
Идентификатор : 1
Формат : AVC
Формат/Информация : Advanced Video Codec
Профиль формата : High@L4.1
Параметр CABAC формата : Да
Параметр ReFrames формата : 9 кадров
Идентификатор кодека : V_MPEG4/ISO/AVC
Продолжительность : 1 ч. 50 м.
Битрейт : 2801 Кбит/сек
Ширина : 1024 пикселя
Высота : 436 пикселей
Соотношение сторон : 2,35:1
Частота кадров : 23,976 кадра/сек
Цветовое пространство : YUV
Субдискретизация насыщенности : 4:2:0
Битовая глубина : 8 бит
Тип развёртки : Прогрессивная
Бит/(Пиксели*Кадры) : 0.262
Размер потока : 2,09 Гбайт (57%)
Библиотека кодирования : x264 core 130 r2273 b3065e6
Настройки программы : cabac=1 / ref=9 / deblock=1:-3:-3 / analyse=0x3:0x113 / me=umh / subme=11 / psy=1 / psy_rd=1.00:0.20 / mixed_ref=1 / me_range=32 / chroma_me=1 / trellis=2 / 8x8dct=1 / cqm=0 / deadzone=21,11 / fast_pskip=0 / chroma_qp_offset=-3 / threads=3 / lookahead_threads=1 / sliced_threads=0 / nr=0 / decimate=0 / interlaced=0 / bluray_compat=0 / constrained_intra=0 / bframes=8 / b_pyramid=2 / b_adapt=2 / b_bias=0 / direct=3 / weightb=1 / open_gop=0 / weightp=2 / keyint=240 / keyint_min=23 / scenecut=40 / intra_refresh=0 / rc_lookahead=40 / rc=2pass / mbtree=0 / bitrate=2801 / ratetol=1.0 / qcomp=0.60 / qpmin=0 / qpmax=69 / qpstep=4 / cplxblur=20.0 / qblur=0.5 / vbv_maxrate=50000 / vbv_bufsize=50000 / nal_hrd=none / ip_ratio=1.40 / pb_ratio=1.30 / aq=1:1.00
Язык : English
Аудио #1
Идентификатор : 2
Формат : AC-3
Формат/Информация : Audio Coding 3
Расширение режима : CM (complete main)
Идентификатор кодека : A_AC3
Продолжительность : 1 ч. 50 м.
Вид битрейта : Постоянный
Битрейт : 384 Кбит/сек
Каналы : 6 каналов
Расположение каналов : Front: L C R, Side: L R, LFE
Частота : 48,0 КГц
Битовая глубина : 16 бит
Метод сжатия : С потерями
Размер потока : 304 Мбайт (8%)
Заголовок : Дублированный
Язык : Russian
Аудио #2
Идентификатор : 3
Формат : AC-3
Формат/Информация : Audio Coding 3
Расширение режима : CM (complete main)
Идентификатор кодека : A_AC3
Продолжительность : 1 ч. 50 м.
Вид битрейта : Постоянный
Битрейт : 384 Кбит/сек
Каналы : 6 каналов
Расположение каналов : Front: L C R, Side: L R, LFE
Частота : 48,0 КГц
Битовая глубина : 16 бит
Метод сжатия : С потерями
Размер потока : 304 Мбайт (8%)
Заголовок : Многоголосый [LostFilm]
Язык : Russian
Аудио #3
Идентификатор : 4
Формат : AC-3
Формат/Информация : Audio Coding 3
Расширение режима : CM (complete main)
Идентификатор кодека : A_AC3
Продолжительность : 1 ч. 50 м.
Вид битрейта : Постоянный
Битрейт : 384 Кбит/сек
Каналы : 6 каналов
Расположение каналов : Front: L C R, Side: L R, LFE
Частота : 48,0 КГц
Битовая глубина : 16 бит
Метод сжатия : С потерями
Размер потока : 304 Мбайт (8%)
Заголовок : Авторский [Андрей Гаврилов]
Язык : Russian
Аудио #4
Идентификатор : 5
Формат : AC-3
Формат/Информация : Audio Coding 3
Расширение режима : CM (complete main)
Идентификатор кодека : A_AC3
Продолжительность : 1 ч. 50 м.
Вид битрейта : Постоянный
Битрейт : 384 Кбит/сек
Каналы : 6 каналов
Расположение каналов : Front: L C R, Side: L R, LFE
Частота : 48,0 КГц
Битовая глубина : 16 бит
Метод сжатия : С потерями
Размер потока : 304 Мбайт (8%)
Заголовок : Авторский [Владимир Королев]
Язык : Russian
Аудио #5
Идентификатор : 6
Формат : AC-3
Формат/Информация : Audio Coding 3
Расширение режима : CM (complete main)
Идентификатор кодека : A_AC3
Продолжительность : 1 ч. 50 м.
Вид битрейта : Постоянный
Битрейт : 384 Кбит/сек
Каналы : 6 каналов
Расположение каналов : Front: L C R, Side: L R, LFE
Частота : 48,0 КГц
Битовая глубина : 16 бит
Метод сжатия : С потерями
Размер потока : 304 Мбайт (8%)
Язык : English
Текст #1
Идентификатор : 7
Формат : UTF-8
Идентификатор кодека : S_TEXT/UTF8
Идентификатор кодека/Информация : UTF-8 Plain Text
Заголовок : Киномания
Язык : Russian
Текст #2
Идентификатор : 8
Формат : UTF-8
Идентификатор кодека : S_TEXT/UTF8
Идентификатор кодека/Информация : UTF-8 Plain Text
Заголовок : Ready
Язык : Russian
Текст #3
Идентификатор : 9
Формат : UTF-8
Идентификатор кодека : S_TEXT/UTF8
Идентификатор кодека/Информация : UTF-8 Plain Text
Язык : English
Текст #4
Идентификатор : 10
Формат : UTF-8
Идентификатор кодека : S_TEXT/UTF8
Идентификатор кодека/Информация : UTF-8 Plain Text
Заголовок : Комментарии №1
Язык : Russian
Текст #5
Идентификатор : 11
Формат : UTF-8
Идентификатор кодека : S_TEXT/UTF8
Идентификатор кодека/Информация : UTF-8 Plain Text
Заголовок : Комментарии №2
Язык : Russian
Меню
00:00:00.000 : :Killer Competition
00:04:10.583 : :Honest Living (Main Titles)
00:12:15.067 : :Behind Bars
00:16:04.338 : :Never A Dull Day
00:19:26.498 : :Keep The Legend Alive
00:24:13.785 : :Getting Acquainted
00:33:04.440 : :Stage 1
00:37:14.273 : :Start Transmission
00:43:35.612 : :Activate Swords & Shields
00:52:14.172 : :Play My Game
00:59:36.697 : :Looking For Me?
01:03:48.949 : :Stage 2
01:07:46.103 : :On The Offense
01:12:45.444 : :Release The Dreadnought
01:20:16.644 : :Stage 3
01:24:47.457 : :A Little Inspiration
01:28:38.271 : :It's Party Time
01:33:25.641 : :Off Track
01:41:49.102 : :All That Matters
01:44:33.391 : :End Titles
----------------------------------------------------------------
x264 [info]: frame I:1581 Avg QP:16.43 size: 70074
x264 [info]: frame P:44980 Avg QP:19.59 size: 24380
x264 [info]: frame B:112535 Avg QP:21.42 size: 9878
----------------------------------------------------------------

Скриншоты



[Цитировать]



Показать сообщения:    

Текущее время: 07-Дек 23:21

Часовой пояс: UTC + 3


Вы не можете начинать темы
Вы не можете отвечать на сообщения
Вы не можете редактировать свои сообщения
Вы не можете удалять свои сообщения
Вы не можете голосовать в опросах
Вы не можете прикреплять файлы к сообщениям
Вы не можете скачивать файлы

!ВНИМАНИЕ!
Сайт не предоставляет электронные версии произведений, а занимается лишь коллекционированием и каталогизацией ссылок, присылаемых и публикуемых на форуме нашими читателями. Если вы являетесь правообладателем какого-либо представленного материала и не желаете, чтобы ссылка на него находилась в нашем каталоге, свяжитесь с нами, и мы незамедлительно удалим ее. Файлы для обмена на трекере предоставлены пользователями сайта, и администрация не несет ответственности за их содержание. Просьба не заливать файлы, защищенные авторскими правами, а также файлы нелегального содержания!