[ Сегодня идет свободное скачивание без начисления Download ]


Статистика раздачи
Нет
 
   
 
Top  
 
 
Дом с паранормальными явлениями / A Haunted House (2013) BDRip-AVC
Информация о фильме
Название: Дом с паранормальными явлениями
Оригинальное название: A Haunted House
Год выхода: 2013
Жанр: ужасы, комедия
Режиссер: Майкл Тиддес
В ролях: Марлон Уайанс, Эссенс Эткинс, Седрик «Развлекатель», Ник Свардсон, Дэвид Кокнер, Дейв Шеридан, Марлин Форте, Аланна Юбак, Эндрю Дэйли, Эффион Крокетт...
О фильме: Малкольм и Киша переезжают в дом своей мечты, но скоро понимают, что там уже проживает демон. Когда Киша становится одержимой, Малкольм обращается за помощью к священнику, экстрасенсу и команде охотников за привидениями.

Страна: США
Продолжительность: 01:26:25
Перевод: Дублированный, Оригинал (Английский)
Файл
Кодек: x.264
Качество: BDRip-AVC
Видео: 1024x560 (1,85:1), 23.976 fps, 1763 kbps, 0.128 bit/pixel
Аудио #1: 48 kHz, AC3 Dolby Digital, 6 ch, ~448.00 kbps (Русский)
Аудио #2: 48 kHz, AC3 Dolby Digital, 2 ch, ~192.00 kbps (Английский)
Субтитры: Русские, Английские (отключаемые)
Семпл
&

MediaInfo

Общее
Уникальный идентификатор : 237607828044799797559724041348781860037 (0xB2C19A651AB3F6F2808F87643F5264C5)
Полное имя : D:TorrentA Haunted House.2013.BDRip-AVC.mkv
Формат : Matroska
Версия формата : Version 4 / Version 2
Размер файла : 1,45 Гбайт
Продолжительность : 1 ч. 26 м.
Общий поток : 2401 Кбит/сек
Название фильма : Дом с паранормальными явлениями / A Haunted House (2013) BDRip-AVC rip by Rulya74
Дата кодирования : UTC 2013-04-27 06:55:40
Программа кодирования : mkvmerge v6.1.0 ('Old Devil') built on Mar 2 2013 14:32:37
Библиотека кодирования : libebml v1.3.0 + libmatroska v1.4.0
Видео
Идентификатор : 1
Формат : AVC
Формат/Информация : Advanced Video Codec
Профиль формата : [email protected]
Параметр CABAC формата : Да
Параметр ReFrames формата : 14 кадров
Идентификатор кодека : V_MPEG4/ISO/AVC
Продолжительность : 1 ч. 26 м.
Битрейт : 1763 Кбит/сек
Ширина : 1024 пикселя
Высота : 560 пикселей
Соотношение сторон : 1,85:1
Режим частоты кадров : Постоянный
Частота кадров : 23,976 кадра/сек
Цветовое пространство : YUV
Субдискретизация насыщенности : 4:2:0
Битовая глубина : 8 бит
Тип развёртки : Прогрессивная
Бит/(Пиксели*Кадры) : 0.128
Размер потока : 1,03 Гбайт (71%)
Библиотека кодирования : x264 core 130 r2273 b3065e6
Настройки программы : cabac=1 / ref=14 / deblock=1:-2:-1 / analyse=0x3:0x133 / me=umh / subme=10 / psy=1 / psy_rd=1.40:0.05 / mixed_ref=1 / me_range=32 / chroma_me=1 / trellis=2 / 8x8dct=1 / cqm=0 / deadzone=21,11 / fast_pskip=0 / chroma_qp_offset=-3 / threads=3 / lookahead_threads=1 / sliced_threads=0 / nr=0 / decimate=1 / interlaced=0 / bluray_compat=0 / constrained_intra=0 / bframes=11 / b_pyramid=2 / b_adapt=2 / b_bias=0 / direct=3 / weightb=1 / open_gop=0 / weightp=2 / keyint=250 / keyint_min=23 / scenecut=40 / intra_refresh=0 / rc_lookahead=50 / rc=2pass / mbtree=1 / bitrate=1763 / ratetol=1.0 / qcomp=0.60 / qpmin=0 / qpmax=69 / qpstep=4 / cplxblur=20.0 / qblur=0.5 / ip_ratio=1.40 / aq=1:1.00
Default : Да
Forced : Нет
Аудио #1
Идентификатор : 2
Формат : AC-3
Формат/Информация : Audio Coding 3
Расширение режима : CM (complete main)
Параметр Endianness формата : Big
Идентификатор кодека : A_AC3
Продолжительность : 1 ч. 26 м.
Вид битрейта : Постоянный
Битрейт : 448 Кбит/сек
Каналы : 6 каналов
Расположение каналов : Front: L C R, Side: L R, LFE
Частота : 48,0 КГц
Битовая глубина : 16 бит
Метод сжатия : С потерями
Размер потока : 277 Мбайт (19%)
Заголовок : Дублированный
Язык : Russian
Default : Да
Forced : Нет
Аудио #2
Идентификатор : 3
Формат : AC-3
Формат/Информация : Audio Coding 3
Расширение режима : CM (complete main)
Параметр Endianness формата : Big
Идентификатор кодека : A_AC3
Продолжительность : 1 ч. 26 м.
Вид битрейта : Постоянный
Битрейт : 192 Кбит/сек
Каналы : 2 канала
Расположение каналов : Front: L R
Частота : 48,0 КГц
Битовая глубина : 16 бит
Метод сжатия : С потерями
Размер потока : 119 Мбайт (8%)
Заголовок : Оригинал
Язык : English
Default : Нет
Forced : Нет
Текст #1
Идентификатор : 4
Формат : UTF-8
Идентификатор кодека : S_TEXT/UTF8
Идентификатор кодека/Информация : UTF-8 Plain Text
Язык : Russian
Default : Да
Forced : Нет
Текст #2
Идентификатор : 5
Формат : UTF-8
Идентификатор кодека : S_TEXT/UTF8
Идентификатор кодека/Информация : UTF-8 Plain Text
Язык : English
Default : Нет
Forced : Нет

Скриншоты




Последний раз редактировалось: Sirocco (2013-04-27 11:52), всего редактировалось 1 раз

[Цитировать]

Топик был перенесен из форума Новинки кинопроката в форум Ужасы
Henkok



Показать сообщения:    

Текущее время: 05-Дек 11:34

Часовой пояс: UTC + 3


Вы не можете начинать темы
Вы не можете отвечать на сообщения
Вы не можете редактировать свои сообщения
Вы не можете удалять свои сообщения
Вы не можете голосовать в опросах
Вы не можете прикреплять файлы к сообщениям
Вы не можете скачивать файлы

!ВНИМАНИЕ!
Сайт не предоставляет электронные версии произведений, а занимается лишь коллекционированием и каталогизацией ссылок, присылаемых и публикуемых на форуме нашими читателями. Если вы являетесь правообладателем какого-либо представленного материала и не желаете, чтобы ссылка на него находилась в нашем каталоге, свяжитесь с нами, и мы незамедлительно удалим ее. Файлы для обмена на трекере предоставлены пользователями сайта, и администрация не несет ответственности за их содержание. Просьба не заливать файлы, защищенные авторскими правами, а также файлы нелегального содержания!