[ Сегодня идет свободное скачивание без начисления Download ]


Статистика раздачи
Нет
 
   
 
Top  
 
 
-Угроза заражения / Infected (2013) DVDRip- Русское название: Угроза заражения
Оригинальное название: Infected
Год выпуска: 2013
Производство: США / Woodhaven Production Company
Жанр: Ужасы, Фантастика, Боевик
Перевод: Одноголосый закадровый, любительский [den904]
Субтитры: Отсутствуют
Дата мировой премьеры: 9 апреля 2013
Режиссер: Гленн Чиано
Продюсер: Чад А. Верди, Николас Джон Билотта
Актеры: Майкл Мэдсен, Кристи Карлсон Романо, Уильям Форсайт, Джонни Чикко, Кристи Дрэйк, Дэвид Гир, Том ДеНуччи, Майкл Николози, Карлин Форнье, Майк Майклс
Описание фильма:
Отец и сын — любители поохотиться на оленей. Каждый год они приезжают в охотничий клуб, где встречают старых знакомых и вместе отправляются убивать невинных животных. И всё бы ничего если бы не одна заболевшая и пропавшая в лесах старушка с весьма странными симптомами… Мать одного и, по совместительству, жена второго главных героев по телевизору узнаёт об ужасном вирусе (бешенстве) который передаётся от оленей к людям и, конечно же, спешит предупредить своих близких. Жаль, что они уже ушли глубоко в лес и опробовали первую рогатую жертву на вкус.

Продолжительность: 01:34:03
Качество видео: DVDRip
Видеокодек: Xvid
Битрейт видео: ~1611 kb/s
Размер кадра: 720x400
Аудио 1: МР3, 192 kb/s, 2.0, Русский
Аудио 2: АС3, 256 kb/s, 5.1, Английский

MediaInfo:

Общее
Полное имя : C:\Торренты\Угроза заражения.2013.DVDRip.avi
Формат : AVI
Формат/Информация : Audio Video Interleave
Размер файла : 1,36 Гбайт
Продолжительность : 1 ч. 34 м.
Общий поток : 2073 Кбит/сек
Программа кодирования : VirtualDubMod 1.5.10.2 (build 2540/release)
Библиотека кодирования : VirtualDubMod build 2540/release
Видео
Идентификатор : 0
Формат : MPEG-4 Visual
Профиль формата : Simple@L3
Параметр BVOP формата : Нет
Параметр QPel формата : Нет
Параметр GMC формата : Без точки перехода
Параметр матрицы формата : Default (H.263)
Идентификатор кодека : XVID
Идентификатор кодека/Подсказка : XviD
Продолжительность : 1 ч. 34 м.
Битрейт : 1611 Кбит/сек
Ширина : 720 пикселей
Высота : 400 пикселей
Соотношение сторон : 16:9
Частота кадров : 23,976 кадра/сек
Цветовое пространство : YUV
Субдискретизация насыщенности : 4:2:0
Битовая глубина : 8 бит
Тип развёртки : Прогрессивная
Метод сжатия : С потерями
Бит/(Пиксели*Кадры) : 0.233
Размер потока : 1,06 Гбайт (78%)
Библиотека кодирования : XviD 1.1.2 (UTC 2006-11-01)
Аудио #1
Идентификатор : 1
Формат : MPEG Audio
Версия формата : Version 1
Профиль формата : Layer 3
Режим : Joint stereo
Идентификатор кодека : 55
Идентификатор кодека/Подсказка : MP3
Продолжительность : 1 ч. 34 м.
Вид битрейта : Постоянный
Битрейт : 192 Кбит/сек
Каналы : 2 канала
Частота : 48,0 КГц
Метод сжатия : С потерями
Размер потока : 129 Мбайт (9%)
Выравнивание : Соединение по промежуткам
Продолжительность промежутка : 42 мс. (1,00 видеокадр)
Время предзагрузки промежутка : 504 мс.
Аудио #2
Идентификатор : 2
Формат : AC-3
Формат/Информация : Audio Coding 3
Расширение режима : CM (complete main)
Параметр Endianness формата : Big
Идентификатор кодека : 2000
Продолжительность : 1 ч. 34 м.
Вид битрейта : Постоянный
Битрейт : 256 Кбит/сек
Каналы : 6 каналов
Расположение каналов : Front: L C R, Side: L R, LFE
Частота : 48,0 КГц
Битовая глубина : 16 бит
Метод сжатия : С потерями
Размер потока : 172 Мбайт (12%)
Выравнивание : Разделение по промежуткам
Продолжительность промежутка : 42 мс. (1,00 видеокадр)
Время предзагрузки промежутка : 500 мс.
Скриншоты:

Время раздачи: c 10.00 до 23.00

[Цитировать]

Топик был перенесен из форума Новинки кинопроката в форум Ужасы
Henkok



Показать сообщения:    

Текущее время: 10-Дек 09:57

Часовой пояс: UTC + 3


Вы не можете начинать темы
Вы не можете отвечать на сообщения
Вы не можете редактировать свои сообщения
Вы не можете удалять свои сообщения
Вы не можете голосовать в опросах
Вы не можете прикреплять файлы к сообщениям
Вы не можете скачивать файлы

!ВНИМАНИЕ!
Сайт не предоставляет электронные версии произведений, а занимается лишь коллекционированием и каталогизацией ссылок, присылаемых и публикуемых на форуме нашими читателями. Если вы являетесь правообладателем какого-либо представленного материала и не желаете, чтобы ссылка на него находилась в нашем каталоге, свяжитесь с нами, и мы незамедлительно удалим ее. Файлы для обмена на трекере предоставлены пользователями сайта, и администрация не несет ответственности за их содержание. Просьба не заливать файлы, защищенные авторскими правами, а также файлы нелегального содержания!