[ Сегодня идет свободное скачивание без начисления Download ]


Статистика раздачи
Нет
 
   
 
Top  
 
 
-Угроза заражения / Infected (2013) DVDRip- Русское название: Угроза заражения
Оригинальное название: Infected
Год выпуска: 2013
Производство: США
Жанр: Ужасы, Фантастика, Боевик
Перевод: Одноголосый закадровый, любительский [den904]
Дата мировой премьеры: 09.04.2013
Режиссер: Гленн Чиано
Продюсер: Чад А. Верди, Николас Джон Билотта
Актеры: Майкл Мэдсен, Кристи Карлсон Романо, Уильям Форсайт, Джонни Чикко, Кристи Дрэйк, Дэвид Гир, Том ДеНуччи, Майкл Николози, Карлин Форнье, Майк Майклс
Описание фильма:
Отец и сын — любители поохотиться на оленей. Каждый год они приезжают в охотничий клуб, где встречают старых знакомых и вместе отправляются убивать невинных животных. И всё бы ничего если бы не одна заболевшая и пропавшая в лесах старушка с весьма странными симптомами… Мать одного и, по совместительству, жена второго главных героев по телевизору узнаёт об ужасном вирусе (бешенстве) который передаётся от оленей к людям и, конечно же, спешит предупредить своих близких. Жаль, что они уже ушли глубоко в лес и опробовали первую рогатую жертву на вкус.

Продолжительность: 01:34:03
Качество видео: DVDRip
Видеокодек: Xvid
Битрейт видео: ~816 Кбит/с
Размер кадра: 624x352
Аудиокодек: MP3, 2 ch
Битрейт аудио: 192 Кбит/с
Сэмпл:

MI:

Общее
Полное имя : D:\Infected 2013.avi
Формат : AVI
Формат/Информация : Audio Video Interleave
Размер файла : 691 Мбайт
Продолжительность : 1 ч. 34 м.
Общий поток : 1018 Кбит/сек
Программа кодирования : VirtualDubMod 1.5.10.2 (build 2540/release)
Библиотека кодирования : VirtualDubMod build 2540/release
Видео
Идентификатор : 0
Формат : MPEG-4 Visual
Профиль формата : Advanced Simple@L5
Параметр BVOP формата : 2
Параметр QPel формата : Нет
Параметр GMC формата : Без точки перехода
Параметр матрицы формата : Default (H.263)
Режим смешивания : Сжатый битовый поток
Идентификатор кодека : XVID
Идентификатор кодека/Подсказка : XviD
Продолжительность : 1 ч. 34 м.
Битрейт : 816 Кбит/сек
Ширина : 624 пикселя
Высота : 352 пикселя
Соотношение сторон : 16:9
Частота кадров : 23,976 кадра/сек
Цветовое пространство : YUV
Субдискретизация насыщенности : 4:2:0
Битовая глубина : 8 бит
Тип развёртки : Прогрессивная
Метод сжатия : С потерями
Бит/(Пиксели*Кадры) : 0.155
Размер потока : 555 Мбайт (80%)
Библиотека кодирования : XviD 64
Аудио
Идентификатор : 1
Формат : MPEG Audio
Версия формата : Version 1
Профиль формата : Layer 3
Режим : Joint stereo
Идентификатор кодека : 55
Идентификатор кодека/Подсказка : MP3
Продолжительность : 1 ч. 34 м.
Вид битрейта : Постоянный
Битрейт : 192 Кбит/сек
Каналы : 2 канала
Частота : 48,0 КГц
Метод сжатия : С потерями
Размер потока : 130 Мбайт (19%)
Выравнивание : Соединение по промежуткам
Продолжительность промежутка : 42 мс. (1,00 видеокадр)
Время предзагрузки промежутка : 504 мс.
Скриншоты:
Время раздачи: 02.00-18.00 мск До 5-ти скачавших

[Цитировать]

Топик был перенесен из форума Новинки кинопроката в форум Ужасы
Henkok



Показать сообщения:    

Текущее время: 07-Дек 23:18

Часовой пояс: UTC + 3


Вы не можете начинать темы
Вы не можете отвечать на сообщения
Вы не можете редактировать свои сообщения
Вы не можете удалять свои сообщения
Вы не можете голосовать в опросах
Вы не можете прикреплять файлы к сообщениям
Вы не можете скачивать файлы

!ВНИМАНИЕ!
Сайт не предоставляет электронные версии произведений, а занимается лишь коллекционированием и каталогизацией ссылок, присылаемых и публикуемых на форуме нашими читателями. Если вы являетесь правообладателем какого-либо представленного материала и не желаете, чтобы ссылка на него находилась в нашем каталоге, свяжитесь с нами, и мы незамедлительно удалим ее. Файлы для обмена на трекере предоставлены пользователями сайта, и администрация не несет ответственности за их содержание. Просьба не заливать файлы, защищенные авторскими правами, а также файлы нелегального содержания!