[ Сегодня идет свободное скачивание без начисления Download ]


Статистика раздачи
Нет
 
   
 
Top  
 
 
-Любовь по-взрослому / This Is 40 (2012) HDRip- Русское название: Любовь по-взрослому
Оригинальное название: This Is 40
Год выпуска: 2012
Производство: США / Apatow Productions, Forty Productions
Жанр: Комедия
Перевод: Дублированный [Чистый звук]
Субтитры: Отсутствуют
Примечание: UNRATED версия! Полный перевод!-Дата мировой премьеры: 20 декабря 2012
Дата российской премьеры: 28 февраля 2013, «UPI»
Дата выхода DVD релиза: 16 мая 2013, «Двадцатый Век Фокс СНГ»-Режиссер: Джудд Апатоу
Продюсер: Джудд Апатоу, Бэрри Мендел, Клэйтон Таунсенд
Актеры: Пол Радд, Лесли Манн, Джон Литгоу, Меган Фокс, Альберт Брукс, Мод Апатоу, Айрис Апатоу, Джейсон Сигел, Энни Мумоло, Роберт Шмигель-Описание фильма:
Спин-офф комедии «Немножко беременна» 2007 года. Взгляд на жизнь Пита и Дебби несколько лет после событий первого фильма: к сложностям брака прибавляются финансовые проблемы.- -Продолжительность: 02:17:04
Качество видео: HDRip-Видеокодек: Xvid
Битрейт видео: ~1955 Kb/s
Размер кадра: 720x304
Аудио#1: Русский - AC3, 448 Kb/s (6 ch)
Аудио#2: Английский - AC3, 448 Kb/s (6 ch)

MediaInfo

Общее
Полное имя : D:\Торрент раздача\Ljubov.po.vzroslomu.2012.D.HDRip.UNRATED.2800MB.avi
Формат : AVI
Формат/Информация : Audio Video Interleave
Профиль формата : OpenDML
Размер файла : 2,75 Гбайт
Продолжительность : 2 ч. 17 м.
Общий поток : 2867 Кбит/сек
Программа кодирования : VirtualDubMod 1.5.10.2 (build 2542/release)
Библиотека кодирования : VirtualDubMod build 2542/release
Видео
Идентификатор : 0
Формат : MPEG-4 Visual
Профиль формата : Advanced Simple@L5
Параметр BVOP формата : 2
Параметр QPel формата : Нет
Параметр GMC формата : Без точки перехода
Параметр матрицы формата : Default (MPEG)
Режим смешивания : Сжатый битовый поток
Идентификатор кодека : XVID
Идентификатор кодека/Подсказка : XviD
Продолжительность : 2 ч. 17 м.
Битрейт : 1955 Кбит/сек
Ширина : 720 пикселей
Высота : 304 пикселя
Соотношение сторон : 2,35:1
Частота кадров : 23,976 кадра/сек
Цветовое пространство : YUV
Субдискретизация насыщенности : 4:2:0
Битовая глубина : 8 бит
Тип развёртки : Прогрессивная
Метод сжатия : С потерями
Бит/(Пиксели*Кадры) : 0.373
Размер потока : 1,87 Гбайт (68%)
Библиотека кодирования : XviD 1.2.1 (UTC 2008-12-04)
Аудио #1
Идентификатор : 1
Формат : AC-3
Формат/Информация : Audio Coding 3
Расширение режима : CM (complete main)
Параметр Endianness формата : Big
Идентификатор кодека : 2000
Продолжительность : 2 ч. 17 м.
Вид битрейта : Постоянный
Битрейт : 448 Кбит/сек
Каналы : 6 каналов
Расположение каналов : Front: L C R, Side: L R, LFE
Частота : 48,0 КГц
Битовая глубина : 16 бит
Метод сжатия : С потерями
Размер потока : 439 Мбайт (16%)
Выравнивание : Разделение по промежуткам
Продолжительность промежутка : 42 мс. (1,00 видеокадр)
Время предзагрузки промежутка : 500 мс.
Аудио #2
Идентификатор : 2
Формат : AC-3
Формат/Информация : Audio Coding 3
Расширение режима : CM (complete main)
Параметр Endianness формата : Big
Идентификатор кодека : 2000
Продолжительность : 2 ч. 17 м.
Вид битрейта : Постоянный
Битрейт : 448 Кбит/сек
Каналы : 6 каналов
Расположение каналов : Front: L C R, Side: L R, LFE
Частота : 48,0 КГц
Битовая глубина : 16 бит
Метод сжатия : С потерями
Размер потока : 439 Мбайт (16%)
Выравнивание : Разделение по промежуткам
Продолжительность промежутка : 42 мс. (1,00 видеокадр)
Время предзагрузки промежутка : 500 мс.
Скриншоты:
Время раздачи: 24/7

[Цитировать]

Топик был перенесен из форума Новинки кинопроката в форум Комедия
Henkok



Показать сообщения:    

Текущее время: 08-Дек 08:58

Часовой пояс: UTC + 3


Вы не можете начинать темы
Вы не можете отвечать на сообщения
Вы не можете редактировать свои сообщения
Вы не можете удалять свои сообщения
Вы не можете голосовать в опросах
Вы не можете прикреплять файлы к сообщениям
Вы не можете скачивать файлы

!ВНИМАНИЕ!
Сайт не предоставляет электронные версии произведений, а занимается лишь коллекционированием и каталогизацией ссылок, присылаемых и публикуемых на форуме нашими читателями. Если вы являетесь правообладателем какого-либо представленного материала и не желаете, чтобы ссылка на него находилась в нашем каталоге, свяжитесь с нами, и мы незамедлительно удалим ее. Файлы для обмена на трекере предоставлены пользователями сайта, и администрация не несет ответственности за их содержание. Просьба не заливать файлы, защищенные авторскими правами, а также файлы нелегального содержания!