[ Сегодня идет свободное скачивание без начисления Download ]


Статистика раздачи
Нет
 
   
 
Top  
 
 
-Родительский беспредел / Parental Guidance (2012) BDRip-«Наши внуки - наши правила»- Русское название: Родительский беспредел
Оригинальное название: Parental Guidance
Год выпуска: 2012
Производство: США / Twentieth Century Fox Film Corporation, Walden Media, Chernin Entertainment
Жанр: Комедия, Семейный
Перевод: Дублированный [BD CEE]
Субтитры: Вшитые отключаемые
Язык субтитров: Русский, Английский
Дата мировой премьеры: 25 декабря 2012
Дата российской премьеры: 17 января 2013
Дата выхода DVD релиза: 25 апреля 2013
Режиссер: Энди Фикмен
Продюсер: Питер Чернин, Билли Кристал, Саманта Шпрехер
Актеры: Билли Кристал, Бетт Мидлер, Мариса Томей, Том Эверетт Скотт, Бэйли Мэдисон, Джошуа Раш, Рода Гриффис
Описание фильма:
Когда Элис оставляет своих отпрысков на попечение родителей, те рады и счастливы: наконец-то они смогут посвятить внукам больше времени. Но совсем скоро Арти и Диана понимают, что постоянные школьные занятия и жизнь по строгому расписанию — это совсем не то, что нужно детям. Чтобы вернуть своим кровинушкам детство, «старая гвардия» вынуждена прибегнуть к нестандартным методам воспитания и использовать неожиданную тактику…

Продолжительность: 01:44:38
Качество видео: BDRip
Видеокодек: Xvid
Битрейт видео: ~1595 kbps
Размер кадра: 720x384
Аудио#1: 48 kHz, AC3 Dolby Digital 6 ch, 384.00 kbps / Дубляж
Аудио#2: 48 kHz, AC3 Dolby Digital 6 ch, 384.00 kbps / Оригинал (Английский) / внешняя
Сэмпл: Скачать
&

Mi

Общее
Полное имя : E:\Фильмы М\Parental.Guidance.2012.BDRip\Parental Guidance.2012.BDRip.avi
Формат : AVI
Формат/Информация : Audio Video Interleave
Размер файла : 1,45 Гбайт
Продолжительность : 1 ч. 44 м.
Общий поток : 1989 Кбит/сек
Название фильма : Parental Guidance.2012.BDRip
Режиссёр : rip by maygli
Программа кодирования : VirtualDubModRus 1.5.10.2 (build 2542/release)
Правообладатель : www.starbit.org (RG Rulya74)
Видео
Идентификатор : 0
Формат : MPEG-4 Visual
Профиль формата : Advanced Simple@L5
Параметр BVOP формата : 1
Параметр QPel формата : Нет
Параметр GMC формата : Без точки перехода
Параметр матрицы формата : Выборочная
Режим смешивания : Сжатый битовый поток
Идентификатор кодека : XVID
Идентификатор кодека/Подсказка : XviD
Продолжительность : 1 ч. 44 м.
Битрейт : 1595 Кбит/сек
Ширина : 720 пикселей
Высота : 384 пикселя
Соотношение сторон : 1,85:1
Частота кадров : 23,976 кадра/сек
Цветовое пространство : YUV
Субдискретизация насыщенности : 4:2:0
Битовая глубина : 8 бит
Тип развёртки : Прогрессивная
Метод сжатия : С потерями
Бит/(Пиксели*Кадры) : 0.241
Размер потока : 1,17 Гбайт (80%)
Библиотека кодирования : XviD 65
Аудио
Идентификатор : 1
Формат : AC-3
Формат/Информация : Audio Coding 3
Расширение режима : CM (complete main)
Параметр Endianness формата : Big
Идентификатор кодека : 2000
Продолжительность : 1 ч. 44 м.
Вид битрейта : Постоянный
Битрейт : 384 Кбит/сек
Каналы : 6 каналов
Расположение каналов : Front: L C R, Side: L R, LFE
Частота : 48,0 КГц
Битовая глубина : 16 бит
Метод сжатия : С потерями
Размер потока : 287 Мбайт (19%)
Выравнивание : Разделение по промежуткам
Продолжительность промежутка : 42 мс. (1,00 видеокадр)
Время предзагрузки промежутка : 500 мс.
Заголовок : Дубляж
Скриншоты:

Время раздачи: с 10:00 до 22:30

[Цитировать]

Топик был перенесен из форума Новинки кинопроката в форум Комедия
Henkok



Показать сообщения:    

Текущее время: 08-Дек 21:18

Часовой пояс: UTC + 3


Вы не можете начинать темы
Вы не можете отвечать на сообщения
Вы не можете редактировать свои сообщения
Вы не можете удалять свои сообщения
Вы не можете голосовать в опросах
Вы не можете прикреплять файлы к сообщениям
Вы не можете скачивать файлы

!ВНИМАНИЕ!
Сайт не предоставляет электронные версии произведений, а занимается лишь коллекционированием и каталогизацией ссылок, присылаемых и публикуемых на форуме нашими читателями. Если вы являетесь правообладателем какого-либо представленного материала и не желаете, чтобы ссылка на него находилась в нашем каталоге, свяжитесь с нами, и мы незамедлительно удалим ее. Файлы для обмена на трекере предоставлены пользователями сайта, и администрация не несет ответственности за их содержание. Просьба не заливать файлы, защищенные авторскими правами, а также файлы нелегального содержания!