[ Сегодня идет свободное скачивание без начисления Download ]


Статистика раздачи
Нет
 
   
 
Top  
 
 
-Земля обетованная / Promised Land (2012) BDRip
«What's your price?»
-Русское название: Земля обетованная
Оригинальное название: Promised Land
Год выпуска: 2012
Производство: США, ОАЭ
Жанр: Драма
Перевод: Любительский (двухголосый закадровый) |ViruseProject|
Cубтитры: нет-Дата мировой премьеры: 28 декабря 2012-Режиссер: Гас Ван Сент / Gus Van Sant
Актеры: Мэтт Дэймон (Steve Butler), Benjamin Sheeler (Attendant), Терри Кинни (David Churchill), Карла Бьянко (Waitress), Джо Койл (Michael Downey), Хэл Холбрук (Frank Yates), Дороти Сильвер (Arlene), Фрэнсис МакДорманд (Sue Thomason), Титус Уэлливер (Rob), Лекси Коуэн (Drew's Girl), Тим Гини (Drew Scott), Сара Трэпнелл (Claire Allen)-Описание фильма:
Корпоративный агент Стив Батлер и его партнер Сью Томасон приезжают в маленький городок, в последние годы переживающий кризис. Местные жители готовы принять предложение компании и дать согласие на бурение скважины на территории их собственности. Все осложняется, когда в дело вмешиваются школьный учитель и представитель профсоюза, с которым у Стива личные счеты.- -Релиз от: Продолжительность: 01:46:35
Качество видео: BDRip |исходник: Blu-ray Disc -BLUEBIRD|
Формат видео: AVI
Видео: 656x352 (1.85:1), 23.976 fps, XviD 65 ~840 kbps avg, 0.152 bit/pixel
Аудио: 48 kHz, MPEG Layer 3, 2 ch, 128.00 kbps Constant |Двухголосый закадровый, ViruseProject|
Скачать: Сэмпл

MediaInfo

General
Complete name : Zemlya.Obetovannaiy.2012.L2.BDRip.745MB_by_Yarmak23.avi
Format : AVI
Format/Info : Audio Video Interleave
File size : 745 MiB
Duration : 1h 46mn
Overall bit rate : 977 Kbps
Writing application : VirtualDubModRus 1.5.10.2 (build 2542/release)
Writing library : VirtualDubMod build 2542/release
Video
ID : 0
Format : MPEG-4 Visual
Format profile : Advanced Simple@L5
Format settings, BVOP : 1
Format settings, QPel : No
Format settings, GMC : No warppoints
Format settings, Matrix : Custom
Codec ID : XVID
Codec ID/Hint : XviD
Duration : 1h 46mn
Bit rate : 840 Kbps
Width : 656 pixels
Height : 352 pixels
Display aspect ratio : 1.85:1
Frame rate : 23.976 fps
Color space : YUV
Chroma subsampling : 4:2:0
Bit depth : 8 bits
Scan type : Progressive
Compression mode : Lossy
Bits/(Pixel*Frame) : 0.152
Stream size : 640 MiB (86%)
Writing library : XviD 65
Audio
ID : 1
Format : MPEG Audio
Format version : Version 1
Format profile : Layer 3
Mode : Joint stereo
Mode extension : MS Stereo
Codec ID : 55
Codec ID/Hint : MP3
Duration : 1h 46mn
Bit rate mode : Constant
Bit rate : 128 Kbps
Channel(s) : 2 channels
Sampling rate : 48.0 KHz
Compression mode : Lossy
Stream size : 97.6 MiB (13%)
Alignment : Aligned on interleaves
Interleave, duration : 42 ms (1.00 video frame)
Interleave, preload duration : 504 ms
Скриншоты:
-Время раздачи: 24/7 (до 7 скачавших)

[Цитировать]

Топик был перенесен из форума Новинки кинопроката в форум Драма
Henkok



Показать сообщения:    

Текущее время: 11-Дек 07:06

Часовой пояс: UTC + 3


Вы не можете начинать темы
Вы не можете отвечать на сообщения
Вы не можете редактировать свои сообщения
Вы не можете удалять свои сообщения
Вы не можете голосовать в опросах
Вы не можете прикреплять файлы к сообщениям
Вы не можете скачивать файлы

!ВНИМАНИЕ!
Сайт не предоставляет электронные версии произведений, а занимается лишь коллекционированием и каталогизацией ссылок, присылаемых и публикуемых на форуме нашими читателями. Если вы являетесь правообладателем какого-либо представленного материала и не желаете, чтобы ссылка на него находилась в нашем каталоге, свяжитесь с нами, и мы незамедлительно удалим ее. Файлы для обмена на трекере предоставлены пользователями сайта, и администрация не несет ответственности за их содержание. Просьба не заливать файлы, защищенные авторскими правами, а также файлы нелегального содержания!