[ Сегодня идет свободное скачивание без начисления Download ]


Статистика раздачи
Нет
 
   
 
Top  
 
 
-Тайна перевала Дятлова / The Dyatlov Pass Incident (2013) HDRip- Русское название: Тайна перевала Дятлова
Оригинальное название: The Dyatlov Pass Incident
Год выпуска: 2013
Производство: Россия, США / Aldamisa Entertainment, K. JAM Media, Future Films
Жанр: Триллер, Ужасы, Фантастика
Перевод: Многоголосый закадровый, профессиональный [лицензия]
Дата мировой премьеры: 28 февраля 2013
Дата российской премьеры: 28 февраля 2013, «Двадцатый Век Фокс СНГ», «A Company»
Дата выхода DVD релиза: 22 апреля 2013, «Новый Диск»
Режиссер: Ренни Харлин
Продюсер: Александр Роднянский, Сергей Мелькумов, Киа Джэм
Актеры: Холли Госс, Мэтт Стокоу, Люк Олбрайт, Райан Хоули, Джемма Аткинсон, Николай Бутенин, Ричард Рейд, Анастасия Бурдина, Валерия Федорович, Нелли Нилсен
Описание фильма:
Сюжет фильма основан на реальных событиях, произошедших в 1959-м году. В 2012-м году группа американских студентов, получив грант, отправляется на уральские горы, следуя тем же маршрутом, что и группа Дятлова, чтобы попытаться восстановить картину и разгадать причину таинственной, мистической и до сих пор не разгаданной гибели советских лыжников.

Продолжительность: 01:40:24
Качество видео: HDRip
Видеокодек: Xvid
Битрейт видео: ~833 Kb/s
Размер кадра: 640x352
Аудиокодек: MP3, 2 канала
Битрейт аудио: 128 Kbps
Сэмпл: Скачать

MI

Общее
Полное имя : C:\Desktop\Раздачи\Tajna.perevala.Djatlova.2013.P.HDRip.700MB.avi
Формат : AVI
Формат/Информация : Audio Video Interleave
Размер файла : 697 Мбайт
Продолжительность : 1 ч. 40 м.
Режим общего битрейта : Переменный
Общий поток : 971 Кбит/сек
Программа кодирования : VirtualDubMod 1.5.10.3 | www.virtualdub-fr.org || (build 2550/release)
Библиотека кодирования : VirtualDubMod build 2550/release
Видео
Идентификатор : 0
Формат : MPEG-4 Visual
Профиль формата : Advanced [email protected]
Параметр BVOP формата : 1
Параметр QPel формата : Нет
Параметр GMC формата : Без точки перехода
Параметр матрицы формата : Выборочная
Идентификатор кодека : XVID
Идентификатор кодека/Подсказка : XviD
Продолжительность : 1 ч. 40 м.
Битрейт : 833 Кбит/сек
Ширина : 640 пикселей
Высота : 352 пикселя
Соотношение сторон : 16:9
Частота кадров : 24,000 кадра/сек
Цветовое пространство : YUV
Субдискретизация насыщенности : 4:2:0
Битовая глубина : 8 бит
Тип развёртки : Прогрессивная
Метод сжатия : С потерями
Бит/(Пиксели*Кадры) : 0.154
Размер потока : 598 Мбайт (86%)
Библиотека кодирования : XviD 1.2.1 (UTC 2008-12-04)
Аудио
Идентификатор : 1
Формат : MPEG Audio
Версия формата : Version 1
Профиль формата : Layer 3
Режим : Joint stereo
Расширение режима : MS Stereo
Идентификатор кодека : 55
Идентификатор кодека/Подсказка : MP3
Продолжительность : 1 ч. 40 м.
Вид битрейта : Переменный
Битрейт : 128 Кбит/сек
Каналы : 2 канала
Частота : 48,0 КГц
Метод сжатия : С потерями
Размер потока : 91,9 Мбайт (13%)
Выравнивание : Соединение по промежуткам
Продолжительность промежутка : 42 мс. (1,00 видеокадр)
Время предзагрузки промежутка : 504 мс.
Библиотека кодирования : LAME3.99.3

Дополнительная информация:

23 января 1959 года группа из девяти опытных лыжных туристов под руководством студента политехнического института Игоря Дятлова отправилась в лыжный поход по горам. Спустя неделю, 1 февраля, группа остановилась на склоне горы Холатчахль (в переводе с мансийского — Гора Мертвецов), неподалеку от безымянного перевала, получившего впоследствии имя Дятлова. К 12 февраля они должны были вернуться в цивилизацию и выйти на связь, но в конечной точке маршрута так и не объявились.
Официальное следствие предположило, что трагедия произошла из-за схода лавины. Позднее появилось несколько версий случившегося — от криминальных и конспирологических до мистических и паранормальных. Обвиняли диких зверей, беглых заключенных из окрестных колоний, солдат, принявших туристов за беглых заключенных, местных жителей из племени манси, для которых Холатчахль имеет ритуальное значение, военных, якобы испытывавших в отдаленной местности новое секретное оружие, агентов иностранной разведки и даже космических пришельцев.
О гибели группы Дятлова было написано несколько исследований и снято несколько документальных фильмов. Однако до сих пор никаких внятных и вразумительных объяснений трагедии полувековой давности на сегодняшний день нет.
Скриншоты:

[Цитировать]

Топик был перенесен из форума Новинки кинопроката в форум Триллер
Henkok



Показать сообщения:    

Текущее время: 05-Дек 11:32

Часовой пояс: UTC + 3


Вы не можете начинать темы
Вы не можете отвечать на сообщения
Вы не можете редактировать свои сообщения
Вы не можете удалять свои сообщения
Вы не можете голосовать в опросах
Вы не можете прикреплять файлы к сообщениям
Вы не можете скачивать файлы

!ВНИМАНИЕ!
Сайт не предоставляет электронные версии произведений, а занимается лишь коллекционированием и каталогизацией ссылок, присылаемых и публикуемых на форуме нашими читателями. Если вы являетесь правообладателем какого-либо представленного материала и не желаете, чтобы ссылка на него находилась в нашем каталоге, свяжитесь с нами, и мы незамедлительно удалим ее. Файлы для обмена на трекере предоставлены пользователями сайта, и администрация не несет ответственности за их содержание. Просьба не заливать файлы, защищенные авторскими правами, а также файлы нелегального содержания!