[ Сегодня идет свободное скачивание без начисления Download ]


Статистика раздачи
Нет
 
   
 
Top  
 
 
-Цифровая радиостанция / The Numbers Station (2013) WEB-DLRip- Русское название: Цифровая радиостанция
Оригинальное название: The Numbers Station
Год выпуска: 2013
Производство: Великобритания / Atlantic Swiss Productions
Жанр: Боевик, Триллер
Перевод: Любительский (одноголосый) [den904]
Субтитры: Вшитые отключаемые
Язык субтитров: Aнглийский
Дата мировой премьеры: 21 марта 2013
Режиссер: Каспер Барфоэд
Продюсер: Брайан Ферст, Шон Ферст, Найджел Томас
Актеры: Джон Кьюсак, Малин Акерман, Ханна Мюррэй, Лиам Каннингэм, Люси Гриффитс, Ричард Брэйк, Брайан Дик, Джои Анса, Джо Монтана, Макс Беннет
Описание фильма:
Рассказ пойдет о телохранителе, который пытается защитить подопечную в Невадской пустыне.


Продолжительность: 01:28:56
Качество видео: WEB-DLRip
Видеокодек: MPEG-4 AVC/H.264
Битрейт видео: ~3974 Kbit/s
Размер кадра: 1280 x 532
Aудио #1: AC3, 48,0 КHz, 5.1, 448 Kbit/s - Русский
Aудио #2: AC3, 48,0 КHz, 5.1, 384 Kbit/s - Aнглийский
Дополнительно: Сохранены оригинальные чаптеры.

MediaInfo

Общее
Уникальный идентификатор : 203970880262726027500233049650011346015 (0x99735CD3E26DFA55A1CE73397424945F)
Полное имя : D:\Торренты\Цифровая радиостанция.2013.WEB-DL.720p.mkv
Формат : Matroska
Размер файла : 3,05 Гбайт
Продолжительность : 1 ч. 28 м.
Общий поток : 4903 Кбит/сек
Дата кодирования : UTC 2013-04-17 14:47:46
Программа кодирования : mkvmerge v6.1.0 ('Old Devil')
Библиотека кодирования : libebml v1.3.0 + libmatroska v1.4.0
Видео
Идентификатор : 1
Формат : AVC
Формат/Информация : Advanced Video Codec
Профиль формата : Main@L3.1
Параметр CABAC формата : Нет
Параметр ReFrames формата : 2 кадра
Параметры GOP формата : M=2, N=48
Идентификатор кодека : V_MPEG4/ISO/AVC
Продолжительность : 1 ч. 28 м.
Битрейт : 3974 Кбит/сек
Ширина : 1280 пикс.
Высота : 532 пикс.
Соотношение сторон : 2,40:1
Частота кадров : 23,976 кадр/сек
Цветовое пространство : YUV
Подвыборка цветности : 4:2:0
Битовая глубина : 8 бит
Тип развёртки : Прогрессивная
Бит/(Пиксели*Кадры) : 0.243
Размер потока : 2,47 Гбайт (81%)
Язык : English
Основные цвета : BT.709-5, BT.1361, IEC 61966-2-4, SMPTE RP177
Характеристики трансфера : BT.709-5, BT.1361
Коэффициенты матрицы : BT.709-5, BT.1361, IEC 61966-2-4 709, SMPTE RP177
Аудио #1
Идентификатор : 2
Формат : AC-3
Формат/Информация : Audio Coding 3
Расширение режима : CM (complete main)
Идентификатор кодека : A_AC3
Продолжительность : 1 ч. 28 м.
Вид битрейта : Постоянный
Битрейт : 448 Кбит/сек
Каналы : 6 каналов
Расположение каналов : Front: L C R, Side: L R, LFE
Частота : 48,0 КГц
Битовая глубина : 16 бит
Метод сжатия : С потерями
Размер потока : 285 Мбайт (9%)
Язык : Russian
Аудио #2
Идентификатор : 3
Формат : AC-3
Формат/Информация : Audio Coding 3
Расширение режима : CM (complete main)
Идентификатор кодека : A_AC3
Продолжительность : 1 ч. 28 м.
Вид битрейта : Постоянный
Битрейт : 384 Кбит/сек
Каналы : 6 каналов
Расположение каналов : Front: L C R, Side: L R, LFE
Частота : 48,0 КГц
Битовая глубина : 16 бит
Метод сжатия : С потерями
Размер потока : 244 Мбайт (8%)
Заголовок : English AC3 5.1 CH @ 384 kbps
Язык : English
Текст
Идентификатор : 4
Формат : UTF-8
Идентификатор кодека : S_TEXT/UTF8
Идентификатор кодека/Информация : UTF-8 Plain Text
Язык : English
Меню
00:00:00.000 : en:Got It
00:09:00.000 : en:Zeroes and Ones
00:17:33.000 : en:Guilty Conscience
00:26:01.000 : en:Cardiff, Aberdeen, Glasgow
00:33:40.000 : en:Ambushed
00:42:06.000 : en:Try the Other Zones
00:50:39.000 : en:Verify the Code
00:59:20.000 : en:Lock Yourself In
01:06:13.000 : en:One More Broadcast
01:11:15.000 : en:Under Duress
01:18:05.000 : en:She's Compromised
01:23:55.000 : en:Credits
Скриншоты:
Время раздачи: 24/7 по возможности

[Цитировать]

Топик был перенесен из форума Новинки кинопроката в форум Боевик
Henkok



Показать сообщения:    

Текущее время: 07-Дек 11:34

Часовой пояс: UTC + 3


Вы не можете начинать темы
Вы не можете отвечать на сообщения
Вы не можете редактировать свои сообщения
Вы не можете удалять свои сообщения
Вы не можете голосовать в опросах
Вы не можете прикреплять файлы к сообщениям
Вы не можете скачивать файлы

!ВНИМАНИЕ!
Сайт не предоставляет электронные версии произведений, а занимается лишь коллекционированием и каталогизацией ссылок, присылаемых и публикуемых на форуме нашими читателями. Если вы являетесь правообладателем какого-либо представленного материала и не желаете, чтобы ссылка на него находилась в нашем каталоге, свяжитесь с нами, и мы незамедлительно удалим ее. Файлы для обмена на трекере предоставлены пользователями сайта, и администрация не несет ответственности за их содержание. Просьба не заливать файлы, защищенные авторскими правами, а также файлы нелегального содержания!