[ Сегодня идет свободное скачивание без начисления Download ]


Статистика раздачи
Нет
 
   
 
Top  
 
 
-Город порока / Broken City (2013) BDRip- Русское название: Город порока
Оригинальное название: Broken City
Год выпуска: 2013
Производство: США / Regency Enterprises, Emmett/Furla Films, Black Bear Pictures
Жанр: Триллер, Драма, Криминал
Перевод: Одноголосый закадровый, любительский (Vano)
Субтитры: Вшитые отключаемые
Язык субтитров: Английский
Дата мировой премьеры: 18 января 2013
Режиссер: Алленс Хьюз
Актеры: Марк Уолберг, Расселл Кроу, Кэтрин Зета-Джонс, Бэрри Пеппер, Кайл Чандлер, Натали Мартинез, Джеффри Райт, Алона Тал, Майкл Бич, Джеймс Рэнсон
Описание фильма:
История бывшего полицейского Билли Таггерта. Восемь лет назад он стрелял в 16-летнего подростка, за что был уволен из полиции. Теперь Таггерт работает частным детективом, которого нанимает мэр, чтобы тот разузнал, не изменяет ли ему жена. Однако расследование адюльтера супруги мэра выливается в настоящий скандал. Человек, с которым жена мэра изменяла мужу, убит, а на поверхность всплывает нехорошая история с недвижимостью.

Продолжительность: 01:48:56
Качество видео: BDRip-AVC
Видеокодек: MPEG-4 AVC/H.264
Видео: 1280x532 (2.40:1), 23,976 fps, 2112 Кbps, 0.129 bit/pixel
Аудио#1: 48 kHz, AC3 Dolby Digital, 3/2 (L,C,R,l,r) + LFE ch, ~384.00 kbps avg (русский)
Аудио#2: 48 kHz, AC3 Dolby Digital, 3/2 (L,C,R,l,r) + LFE ch, ~384.00 kbps avg (английский)

MI

Общее
Уникальный идентификатор : 254440856455997863605119045104534159859 (0xBF6B86C595DD4C9380E75B8AC1B601F3)
Полное имя : Gorod.Poroka.2013.L1.BDRip.x264.potroks.mkv
Формат : Matroska
Версия формата : Version 4 / Version 2
Размер файла : 2,19 Гбайт
Продолжительность : 1 ч. 48 м.
Общий поток : 2880 Кбит/сек
Название фильма : -=POTROKS=-
Дата кодирования : UTC 2013-04-17 21:09:00
Программа кодирования : mkvmerge v5.9.0 ('On The Loose') built on Dec 15 2012 16:39:58
Библиотека кодирования : libebml v1.3.0 + libmatroska v1.4.0
Видео
Идентификатор : 1
Формат : AVC
Формат/Информация : Advanced Video Codec
Профиль формата : High@L4.1
Параметр CABAC формата : Да
Параметр ReFrames формата : 10 кадров
Идентификатор кодека : V_MPEG4/ISO/AVC
Продолжительность : 1 ч. 48 м.
Битрейт : 2112 Кбит/сек
Ширина : 1280 пикселей
Высота : 532 пикселя
Соотношение сторон : 2,40:1
Режим частоты кадров : Постоянный
Частота кадров : 23,976 кадра/сек
Цветовое пространство : YUV
Субдискретизация насыщенности : 4:2:0
Битовая глубина : 8 бит
Тип развёртки : Прогрессивная
Бит/(Пиксели*Кадры) : 0.129
Размер потока : 1,56 Гбайт (71%)
Заголовок : Broken City
Библиотека кодирования : x264 core 125 r2208 d9d2288
Настройки программы : cabac=1 / ref=10 / deblock=1:-2:-1 / analyse=0x3:0x133 / me=umh / subme=11 / psy=1 / psy_rd=1.03:0.03 / mixed_ref=1 / me_range=32 / chroma_me=1 / trellis=2 / 8x8dct=1 / cqm=0 / deadzone=21,11 / fast_pskip=0 / chroma_qp_offset=-3 / threads=6 / lookahead_threads=1 / sliced_threads=0 / nr=0 / decimate=1 / interlaced=0 / bluray_compat=0 / constrained_intra=0 / bframes=11 / b_pyramid=2 / b_adapt=2 / b_bias=0 / direct=3 / weightb=1 / open_gop=0 / weightp=2 / keyint=240 / keyint_min=23 / scenecut=40 / intra_refresh=0 / rc_lookahead=100 / rc=2pass / mbtree=1 / bitrate=2112 / ratetol=1.0 / qcomp=0.70 / qpmin=0 / qpmax=69 / qpstep=4 / cplxblur=20.0 / qblur=0.5 / vbv_maxrate=20000 / vbv_bufsize=22500 / nal_hrd=none / ip_ratio=1.35 / aq=1:0.80
Язык : English
Default : Да
Forced : Нет
Аудио #1
Идентификатор : 2
Формат : AC-3
Формат/Информация : Audio Coding 3
Расширение режима : CM (complete main)
Параметр Endianness формата : Big
Идентификатор кодека : A_AC3
Продолжительность : 1 ч. 48 м.
Вид битрейта : Постоянный
Битрейт : 384 Кбит/сек
Каналы : 6 каналов
Расположение каналов : Front: L C R, Side: L R, LFE
Частота : 48,0 КГц
Битовая глубина : 16 бит
Метод сжатия : С потерями
Размер потока : 299 Мбайт (13%)
Заголовок : Vano
Язык : Russian
Default : Да
Forced : Да
Аудио #2
Идентификатор : 3
Формат : AC-3
Формат/Информация : Audio Coding 3
Расширение режима : CM (complete main)
Параметр Endianness формата : Big
Идентификатор кодека : A_AC3
Продолжительность : 1 ч. 48 м.
Вид битрейта : Постоянный
Битрейт : 384 Кбит/сек
Каналы : 6 каналов
Расположение каналов : Front: L C R, Side: L R, LFE
Частота : 48,0 КГц
Битовая глубина : 16 бит
Метод сжатия : С потерями
Размер потока : 299 Мбайт (13%)
Заголовок : Original | DD 5.1 @ 384 kbps
Язык : English
Default : Нет
Forced : Нет
Текст
Идентификатор : 4
Формат : UTF-8
Идентификатор кодека : S_TEXT/UTF8
Идентификатор кодека/Информация : UTF-8 Plain Text
Язык : English
Default : Нет
Forced : Нет

log@x.264

x264 [info]: frame I:1140 Avg QP:16.84 size: 57050
x264 [info]: frame P:31304 Avg QP:18.27 size: 22013
x264 [info]: frame B:123891 Avg QP:20.65 size: 7795
x264 [info]: consecutive B-frames: 1.9% 2.5% 5.9% 13.8% 13.3% 44.5% 6.4% 1.6% 3.1% 1.0% 2.1% 1.8%
x264 [info]: mb I I16..4: 20.9% 62.7% 16.3%
x264 [info]: mb P I16..4: 2.5% 7.7% 1.3% P16..4: 33.6% 34.2% 8.8% 1.1% 0.1% skip:10.8%
x264 [info]: mb B I16..4: 0.3% 1.0% 0.2% B16..8: 36.0% 15.4% 1.7% direct: 3.9% skip:41.5% L0:45.1% L1:47.7% BI: 7.2%
x264 [info]: 8x8 transform intra:67.0% inter:68.1%
x264 [info]: direct mvs spatial:98.3% temporal:1.7%
x264 [info]: coded y,uvDC,uvAC intra: 63.5% 66.9% 42.9% inter: 14.9% 18.6% 4.5%
x264 [info]: i16 v,h,dc,p: 37% 18% 6% 39%
x264 [info]: i8 v,h,dc,ddl,ddr,vr,hd,vl,hu: 10% 7% 9% 10% 14% 13% 13% 12% 13%
x264 [info]: i4 v,h,dc,ddl,ddr,vr,hd,vl,hu: 26% 8% 9% 8% 12% 10% 10% 8% 9%
x264 [info]: i8c dc,h,v,p: 40% 26% 18% 16%
x264 [info]: Weighted P-Frames: Y:3.5% UV:1.8%
x264 [info]: ref P L0: 47.4% 6.8% 18.0% 7.8% 5.7% 4.5% 3.6% 2.1% 1.9% 1.8% 0.3% 0.0%
x264 [info]: ref B L0: 70.7% 12.6% 6.8% 3.3% 2.3% 1.9% 1.6% 0.6% 0.3%
x264 [info]: ref B L1: 91.0% 9.0%
x264 [info]: kb/s:2110.12
Скриншоты:


Время раздачи: 24/7

[Цитировать]

Топик был перенесен из форума Новинки кинопроката в форум Триллер
Henkok



Показать сообщения:    

Текущее время: 07-Дек 21:23

Часовой пояс: UTC + 3


Вы не можете начинать темы
Вы не можете отвечать на сообщения
Вы не можете редактировать свои сообщения
Вы не можете удалять свои сообщения
Вы не можете голосовать в опросах
Вы не можете прикреплять файлы к сообщениям
Вы не можете скачивать файлы

!ВНИМАНИЕ!
Сайт не предоставляет электронные версии произведений, а занимается лишь коллекционированием и каталогизацией ссылок, присылаемых и публикуемых на форуме нашими читателями. Если вы являетесь правообладателем какого-либо представленного материала и не желаете, чтобы ссылка на него находилась в нашем каталоге, свяжитесь с нами, и мы незамедлительно удалим ее. Файлы для обмена на трекере предоставлены пользователями сайта, и администрация не несет ответственности за их содержание. Просьба не заливать файлы, защищенные авторскими правами, а также файлы нелегального содержания!