[ Сегодня идет свободное скачивание без начисления Download ]


Статистика раздачи
Нет
 
   
 
Top  
 
 
-Ангел-хранитель / Schutzengel (2012) HDRip- Русское название: Ангел-хранитель
Оригинальное название: Schutzengel
Год выпуска: 2012
Производство: Германия / barefoot films, Warner Bros. Film Productions Germany
Жанр: Триллер
Перевод: Дублированный [лицензия]
Субтитры: Отсутствуют-Дата мировой премьеры: 24 июня 2012
Дата российской премьеры: 7 марта 2013, «20 Век Фокс СНГ», «A Company»
Дата выхода DVD релиза: 22 апреля 2013, «Новый Диск»-Режиссер: Тиль Швайгер
Продюсер: Пол Морис, Тиль Швайгер, Томас Циклер
Актеры: Тиль Швайгер, Луна Швайгер, Каролине Шух, Давид Акинлойе, Фолькер Альберс, Нуман Акар, Годе Бенедикс, Мориц Бляйбтрой, Райнер Бок, Ютте-Мерле Бёрнзен-Описание фильма:
Нина, молодая девушка — сирота, неожиданно становится свидетелем убийства, совершенного богатым предпринимателем. Теперь она — большая проблема на пути бизнесмена. Девушке негде укрыться, некуда бежать. Ее спасением становится бывший солдат Макс. Отныне он ее ангел-хранитель. Чтобы остаться в живых, им нужно срочно исчезнуть…- -Продолжительность: 02:12:52
Качество видео: HDRip-Видеокодек: Xvid
Битрейт видео: ~686 kbps
Размер кадра: 640x272
Аудиокодек: MP3 (2 ch)
Битрейт аудио: 128 kbps

MediaInfo:

Общее
Полное имя : D:\Торрент раздача\Angel_hranitel_HDRip_dub_r5.avi
Формат : AVI
Формат/Информация : Audio Video Interleave
Размер файла : 784 Мбайт
Продолжительность : 2 ч. 12 м.
Общий поток : 824 Кбит/сек
Программа кодирования : VirtualDubMod 1.5.10.2 (build 2540/release)
Библиотека кодирования : VirtualDubMod build 2540/release
Видео
Идентификатор : 0
Формат : MPEG-4 Visual
Профиль формата : Advanced Simple@L5
Параметр BVOP формата : 1
Параметр QPel формата : Нет
Параметр GMC формата : Без точки перехода
Параметр матрицы формата : Выборочная
Идентификатор кодека : XVID
Идентификатор кодека/Подсказка : XviD
Продолжительность : 2 ч. 12 м.
Битрейт : 687 Кбит/сек
Ширина : 640 пикселей
Высота : 272 пикселя
Соотношение сторон : 2,35:1
Частота кадров : 23,976 кадра/сек
Цветовое пространство : YUV
Субдискретизация насыщенности : 4:2:0
Битовая глубина : 8 бит
Тип развёртки : Прогрессивная
Метод сжатия : С потерями
Бит/(Пиксели*Кадры) : 0.165
Размер потока : 653 Мбайт (83%)
Библиотека кодирования : XviD 1.2.1 (UTC 2008-12-04)
Аудио
Идентификатор : 1
Формат : MPEG Audio
Версия формата : Version 1
Профиль формата : Layer 3
Идентификатор кодека : 55
Идентификатор кодека/Подсказка : MP3
Продолжительность : 2 ч. 12 м.
Вид битрейта : Постоянный
Битрейт : 128 Кбит/сек
Каналы : 2 канала
Частота : 48,0 КГц
Метод сжатия : С потерями
Размер потока : 122 Мбайт (16%)
Выравнивание : Соединение по промежуткам
Продолжительность промежутка : 42 мс. (1,00 видеокадр)
Время предзагрузки промежутка : 504 мс.
Библиотека кодирования : LAME3.97
Настройки программы : -m s -V 4 -q 2 -lowpass 17 -b 128
Скриншоты:
Время раздачи: 08:00-23:00 (МСК)

[Цитировать]

Топик был перенесен из форума Новинки кинопроката в форум Триллер
Henkok



Показать сообщения:    

Текущее время: 10-Дек 00:18

Часовой пояс: UTC + 3


Вы не можете начинать темы
Вы не можете отвечать на сообщения
Вы не можете редактировать свои сообщения
Вы не можете удалять свои сообщения
Вы не можете голосовать в опросах
Вы не можете прикреплять файлы к сообщениям
Вы не можете скачивать файлы

!ВНИМАНИЕ!
Сайт не предоставляет электронные версии произведений, а занимается лишь коллекционированием и каталогизацией ссылок, присылаемых и публикуемых на форуме нашими читателями. Если вы являетесь правообладателем какого-либо представленного материала и не желаете, чтобы ссылка на него находилась в нашем каталоге, свяжитесь с нами, и мы незамедлительно удалим ее. Файлы для обмена на трекере предоставлены пользователями сайта, и администрация не несет ответственности за их содержание. Просьба не заливать файлы, защищенные авторскими правами, а также файлы нелегального содержания!