[ Сегодня идет свободное скачивание без начисления Download ]


Статистика раздачи
Нет
 
   
 
Top  
 
 
-Ангел-хранитель / Schutzengel (2012) HDRip- Русское название: Ангел-хранитель
Оригинальное название: Schutzengel
Год выпуска: 2012
Производство: Германия / barefoot films, Warner Bros. Film Productions Germany
Жанр: Триллер
Перевод: Дублированный [Лицензия]
Субтитры: Отсутствуют
Дата мировой премьеры: 24 июня 2012
Дата российской премьеры: 7 марта 2013, «20 Век Фокс СНГ», «A Company»
Дата выхода DVD релиза: 22 апреля 2013, «Новый Диск»
Режиссер: Тиль Швайгер
Продюсер: Пол Морис, Тиль Швайгер, Томас Циклер
Актеры: Тиль Швайгер, Луна Швайгер, Каролине Шух, Давид Акинлойе, Фолькер Альберс, Нуман Акар, Годе Бенедикс, Мориц Бляйбтрой, Райнер Бок, Ютте-Мерле Бёрнзен
Описание фильма:
Нина, молодая девушка — сирота, неожиданно становится свидетелем убийства, совершенного богатым предпринимателем. Теперь она — большая проблема на пути бизнесмена. Девушке негде укрыться, некуда бежать. Ее спасением становится бывший солдат Макс. Отныне он ее ангел-хранитель. Чтобы остаться в живых, им нужно срочно исчезнуть…- -Продолжительность: 02:12:52
Качество видео: HDRip
Видеокодек: MPEG-4 AVC/H.264
Битрейт видео: ~1822 Kbps 23.98 fps
Размер кадра: 1024x436
Аудиокодек: AC3 5.1
Битрейт аудио: 448 Kbps 48000 Hz
Сэмпл: Скачать

MediaInfo:

Общее
Уникальный идентификатор                 : 191893502067832953743914189581924138533 (0x905D581BF4C7BED6AC866000D4CF7E25)
Полное имя                               : E:\Загрузка\Angel.Hranitel.2012.HDRip.AVC.mkv
Формат                                   : Matroska
Версия формата                           : Version 2
Размер файла                             : 2,11 Гбайт
Продолжительность                        : 2 ч. 12 м.
Общий поток                              : 2271 Кбит/сек
Дата кодирования                         : UTC 2013-04-18 08:01:51
Программа кодирования                    : mkvmerge v5.2.1 ('A Far Off Place') built on Feb  6 2012 10:08:15
Библиотека кодирования                   : libebml v1.2.3 + libmatroska v1.3.0
Видео
Идентификатор                            : 1
Формат                                   : AVC
Формат/Информация                        : Advanced Video Codec
Профиль формата                          : [url=mailto:[email protected]][email protected][/url]
Параметр CABAC формата                   : Да
Параметр ReFrames формата                : 11 кадров
Идентификатор кодека                     : V_MPEG4/ISO/AVC
Продолжительность                        : 2 ч. 12 м.
Битрейт                                  : 1822 Кбит/сек
Ширина                                   : 1024 пикселя
Высота                                   : 436 пикселей
Соотношение сторон                       : 2,35:1
Частота кадров                           : 23,976 кадра/сек
Цветовое пространство                    : YUV
Субдискретизация насыщенности            : 4:2:0
Битовая глубина                          : 8 бит
Тип развёртки                            : Прогрессивная
Бит/(Пиксели*Кадры)                      : 0.170
Размер потока                            : 1,65 Гбайт (78%)
Библиотека кодирования                   : x264 core 130 r2273 b3065e6
Настройки программы                      : cabac=1 / ref=11 / deblock=1:-2:-2 / analyse=0x3:0x133 / me=umh / subme=10 / psy=1 / psy_rd=1.05:0.10 / mixed_ref=1 / me_range=24 / chroma_me=1 / trellis=2 / 8x8dct=1 / cqm=0 / deadzone=21,11 / fast_pskip=0 / chroma_qp_offset=-3 / threads=12 / lookahead_threads=1 / sliced_threads=0 / nr=0 / decimate=1 / interlaced=0 / bluray_compat=0 / constrained_intra=0 / bframes=6 / b_pyramid=2 / b_adapt=2 / b_bias=0 / direct=3 / weightb=1 / open_gop=0 / weightp=2 / keyint=240 / keyint_min=23 / scenecut=40 / intra_refresh=0 / rc=2pass / mbtree=0 / bitrate=1822 / ratetol=1.0 / qcomp=0.60 / qpmin=0 / qpmax=69 / qpstep=4 / cplxblur=20.0 / qblur=0.5 / ip_ratio=1.40 / pb_ratio=1.30 / aq=1:0.80
Язык                                     : English
Default                                  : Да
Forced                                   : Нет
Аудио
Идентификатор                            : 2
Формат                                   : AC-3
Формат/Информация                        : Audio Coding 3
Расширение режима                        : CM (complete main)
Параметр Endianness формата              : Big
Идентификатор кодека                     : A_AC3
Продолжительность                        : 2 ч. 12 м.
Вид битрейта                             : Постоянный
Битрейт                                  : 448 Кбит/сек
Каналы                                   : 6 каналов
Расположение каналов                     : Front: L C R, Side: L R, LFE
Частота                                  : 48,0 КГц
Битовая глубина                          : 16 бит
Метод сжатия                             : С потерями
Размер потока                            : 426 Мбайт (20%)
Default                                  : Да
Forced                                   : Нет
Скриншоты:
-Приятного просмотра
и не забываем говорить СПАСИБО...
-Время раздачи: 24/7
до 15 скачавших..

[Цитировать]

Топик был перенесен из форума Новинки кинопроката в форум Триллер
Henkok



Показать сообщения:    

Текущее время: 06-Дек 15:14

Часовой пояс: UTC + 3


Вы не можете начинать темы
Вы не можете отвечать на сообщения
Вы не можете редактировать свои сообщения
Вы не можете удалять свои сообщения
Вы не можете голосовать в опросах
Вы не можете прикреплять файлы к сообщениям
Вы не можете скачивать файлы

!ВНИМАНИЕ!
Сайт не предоставляет электронные версии произведений, а занимается лишь коллекционированием и каталогизацией ссылок, присылаемых и публикуемых на форуме нашими читателями. Если вы являетесь правообладателем какого-либо представленного материала и не желаете, чтобы ссылка на него находилась в нашем каталоге, свяжитесь с нами, и мы незамедлительно удалим ее. Файлы для обмена на трекере предоставлены пользователями сайта, и администрация не несет ответственности за их содержание. Просьба не заливать файлы, защищенные авторскими правами, а также файлы нелегального содержания!