[ Сегодня идет свободное скачивание без начисления Download ]


Статистика раздачи
Нет
 
   
 
Top  
 
 
-Тайна перевала Дятлова / The Dyatlov Pass Incident (2013) HDRip- Русское название: Тайна перевала Дятлова
Оригинальное название: The Dyatlov Pass Incident
Год выпуска: 2013
Производство: Россия, США | Aldamisa Entertainment, K. JAM Media, Future Films
Жанр: Триллер, Ужасы, Фантастика
Перевод: Многоголосый закадровый, профессиональный [Лицензия]
Субтитры: Отсутствуют-Дата мировой премьеры: 28 февраля 2013
Дата российской премьеры: 28 февраля 2013, «Двадцатый Век Фокс СНГ», «A Company»
Дата выхода DVD релиза: 22 апреля 2013, «Новый Диск»
Дата выхода Blu-Ray релиза: 22 апреля 2013, «Новый Диск»-Режиссер: Ренни Харлин-Продюсер: Александр Роднянский, Сергей Мелькумов, Киа Джэм-Актеры: Холли Госс, Мэтт Стокоу, Люк Олбрайт, Джемма Аткинсон, Ричард Рейд, Райан Хоули, Николай Бутенин, Анастасия Бурдина, Валерия Федорович, Нелли Нилсен-Описание фильма:
Сюжет фильма основан на реальных событиях, произошедших в 1959-м году. В 2012-м году группа американских студентов, получив грант, отправляется на уральские горы, следуя тем же маршрутом, что и группа Дятлова, чтобы попытаться восстановить картину и разгадать причину таинственной, мистической и до сих пор не разгаданной гибели советских лыжников.-
Продолжительность: 01:40:24
Качество видео: HDRip
Видеокодек: MPEG-4 AVC/H.264
Битрейт видео: ~ 2529 Кбит/сек
Размер кадра: 1024 x 576 (1.778) at 24.000 fps : 0.179 Bits/Pixel
Аудиокодек: AC3 5.1
Битрейт аудио: 384 Кбит/сек, 48,0 КГц, 16 бит [Русский, MVO]
Дополнительно: Сохранены оригинальные чаптеры как на Blu-ray
Релиз:

Трейлер / Ролик

[youtube]http://www.youtube.com/v/FMEajgQsAjg&fs=1[/youtube]

Знаете ли вы, что...

• 23 января 1959 года группа из девяти опытных лыжных туристов под руководством студента политехнического института Игоря Дятлова отправилась в лыжный поход по горам. Спустя неделю, 1 февраля, группа остановилась на склоне горы Холатчахль (в переводе с мансийского — Гора Мертвецов), неподалеку от безымянного перевала, получившего впоследствии имя Дятлова. К 12 февраля они должны были вернуться в цивилизацию и выйти на связь, но в конечной точке маршрута так и не объявились.
• Официальное следствие предположило, что трагедия произошла из-за схода лавины. Позднее появилось несколько версий случившегося — от криминальных и конспирологических до мистических и паранормальных. Обвиняли диких зверей, беглых заключенных из окрестных колоний, солдат, принявших туристов за беглых заключенных, местных жителей из племени манси, для которых Холатчахль имеет ритуальное значение, военных, якобы испытывавших в отдаленной местности новое секретное оружие, агентов иностранной разведки и даже космических пришельцев.
• О гибели группы Дятлова было написано несколько исследований и снято несколько документальных фильмов. Однако до сих пор никаких внятных и вразумительных объяснений трагедии полувековой давности на сегодняшний день нет.

MediaInfo:

Полное имя                               : H:\Tajna.perevala.Djatlova.2013.P.BDRip.AVC.2100mb.NNM-CLUB.mkv
Формат                                   : Matroska
Версия формата                           : Version 2
Размер файла                             : 2,04 Гбайт
Продолжительность                        : 1 ч. 40 м.
Общий поток                              : 2909 Кбит/сек
Название фильма                          : Tajna.perevala.Djatlova.2013.P.BDRip.AVC.2100mb.NNM-CLUB.GIU
Дата кодирования                         : UTC 2013-04-18 09:37:01
Программа кодирования                    : mkvmerge v2.9.9 ('Tutu') built on Nov 25 2009 21:13:32
Библиотека кодирования                   : libebml v0.7.9 + libmatroska v0.8.1
Видео
Идентификатор                            : 1
Формат                                   : AVC
Формат/Информация                        : Advanced Video Codec
Профиль формата                          : [url=mailto:High@L4.1]High@L4.1[/url]
Параметр CABAC формата                   : Да
Параметр ReFrames формата                : 9 кадров
Идентификатор кодека                     : V_MPEG4/ISO/AVC
Продолжительность                        : 1 ч. 40 м.
Битрейт                                  : 2529 Кбит/сек
Ширина                                   : 1024 пикселя
Высота                                   : 576 пикселей
Соотношение сторон                       : 16:9
Режим частоты кадров                     : Постоянный
Частота кадров                           : 24,000 кадра/сек
Цветовое пространство                    : YUV
Субдискретизация насыщенности            : 4:2:0
Битовая глубина                          : 8 бит
Тип развёртки                            : Прогрессивная
Бит/(Пиксели*Кадры)                      : 0.179
Размер потока                            : 1,73 Гбайт (85%)
Заголовок                                : -=Rip by GIU=-
Библиотека кодирования                   : x264 core 119 r2106 07efeb4
Настройки программы                      : cabac=1 / ref=9 / deblock=1:-3:-3 / analyse=0x3:0x113 / me=umh / subme=10 / psy=1 / psy_rd=1.00:0.00 / mixed_ref=1 / me_range=32 / chroma_me=1 / trellis=2 / 8x8dct=1 / cqm=0 / deadzone=21,11 / fast_pskip=1 / chroma_qp_offset=-2 / threads=12 / sliced_threads=0 / nr=0 / decimate=1 / interlaced=0 / bluray_compat=0 / constrained_intra=0 / bframes=7 / b_pyramid=2 / b_adapt=1 / b_bias=0 / direct=3 / weightb=1 / open_gop=0 / weightp=2 / keyint=250 / keyint_min=20 / scenecut=40 / intra_refresh=0 / rc_lookahead=30 / rc=2pass / mbtree=1 / bitrate=2529 / ratetol=1.0 / qcomp=0.75 / qpmin=0 / qpmax=51 / qpstep=4 / cplxblur=20.0 / qblur=0.5 / ip_ratio=1.40 / aq=1:1.00
Default                                  : Нет
Forced                                   : Нет
Аудио
Идентификатор                            : 2
Формат                                   : AC-3
Формат/Информация                        : Audio Coding 3
Расширение режима                        : CM (complete main)
Параметр Endianness формата              : Big
Идентификатор кодека                     : A_AC3
Продолжительность                        : 1 ч. 40 м.
Вид битрейта                             : Постоянный
Битрейт                                  : 384 Кбит/сек
Каналы                                   : 6 каналов
Расположение каналов                     : Front: L C R, Side: L R, LFE
Частота                                  : 48,0 КГц
Битовая глубина                          : 16 бит
Метод сжатия                             : С потерями
Размер потока                            : 276 Мбайт (13%)
Заголовок                                : AC3.384Kbps (6ch) Russian
Язык                                     : Russian
Default                                  : Да
Forced                                   : Нет
Меню
00:00:00.000                             : ru:00:00:00.000
00:00:00.333                             : ru:00:00:00.333
00:01:39.166                             : ru:00:01:39.166
00:16:14.416                             : ru:00:16:14.416
00:29:49.291                             : ru:00:29:49.291
00:41:49.750                             : ru:00:41:49.750
00:54:19.625                             : ru:00:54:19.625
01:07:26.458                             : ru:01:07:26.458
01:19:31.166                             : ru:01:19:31.166
01:30:32.750                             : ru:01:30:32.750
Скриншоты:




[Цитировать]

Топик был перенесен из форума Новинки кинопроката в форум Триллер
Henkok



Показать сообщения:    

Текущее время: 08-Дек 15:04

Часовой пояс: UTC + 3


Вы не можете начинать темы
Вы не можете отвечать на сообщения
Вы не можете редактировать свои сообщения
Вы не можете удалять свои сообщения
Вы не можете голосовать в опросах
Вы не можете прикреплять файлы к сообщениям
Вы не можете скачивать файлы

!ВНИМАНИЕ!
Сайт не предоставляет электронные версии произведений, а занимается лишь коллекционированием и каталогизацией ссылок, присылаемых и публикуемых на форуме нашими читателями. Если вы являетесь правообладателем какого-либо представленного материала и не желаете, чтобы ссылка на него находилась в нашем каталоге, свяжитесь с нами, и мы незамедлительно удалим ее. Файлы для обмена на трекере предоставлены пользователями сайта, и администрация не несет ответственности за их содержание. Просьба не заливать файлы, защищенные авторскими правами, а также файлы нелегального содержания!