[ Сегодня идет свободное скачивание без начисления Download ]


Статистика раздачи
Нет
 
   
 
Top  
 
 
-Родительский беспредел / Parental Guidance (2012) BDRip [H.264]
«Наши внуки - наши правила»
- Русское название: Родительский беспредел
Оригинальное название: Parental Guidance
Год выпуска: 2012
Производство: США / Paramount Pictures, Chernin Entertainment, Walden Media
Жанр: Комедия, Семейный
Перевод: Профессиональный (полное дублирование) Лицензия
Субтитры: Английский, английский (SDH), русский / вшитые, отключаемые
Навигация по главам: Есть
Дата мировой премьеры: 25 декабря 2012
Дата российской премьеры: 17 января 2013
Дата выхода DVD релиза: 25 апреля 2013
Дата выхода Blu-Ray релиза: 25 апреля 2013
Режиссер: Энди Фикмен
Актеры: Билли Кристал, Бетт Мидлер, Мариса Томей, Том Эверетт Скотт, Бэйли Мэдисон, Джошуа Раш, Рода Гриффис
Описание фильма:
Когда Элис оставляет своих отпрысков на попечение родителей, те рады и счастливы: наконец-то они смогут посвятить внукам больше времени. Но совсем скоро Арти и Диана понимают, что постоянные школьные занятия и жизнь по строгому расписанию — это совсем не то, что нужно детям. Чтобы вернуть своим кровинушкам детство, «старая гвардия» вынуждена прибегнуть к нестандартным методам воспитания и использовать неожиданную тактику…

Продолжительность: 01:44:38
Качество видео: BDRip
Видеокодек: MPEG-4 AVC/H.264
Битрейт видео: ~2095 Кбит/сек
Размер кадра: 1012x546
Аудио #1: AC3, 6 ch, 448 Кбит/с, Русский
Аудио #2: AC3, 6 ch, 448 Кбит/с, Английский

MediaInfo:

Общее
Уникальный идентификатор : 196321139855238257317508729792739001293 (0x93B213819A8498BA833DFD792251C3CD)
Полное имя : Roditel'skij.Pespredel.2012.D.BDRip.x264.mkv
Формат : Matroska
Версия формата : Version 4 / Version 2
Размер файла : 2,19 Гбайт
Продолжительность : 1 ч. 44 м.
Общий поток : 2993 Кбит/сек
Название фильма : -=POTROKS=-
Дата кодирования : UTC 2013-04-18 14:10:43
Программа кодирования : mkvmerge v5.9.0 ('On The Loose') built on Dec 15 2012 16:39:58
Библиотека кодирования : libebml v1.3.0 + libmatroska v1.4.0
Видео
Идентификатор : 1
Формат : AVC
Формат/Информация : Advanced Video Codec
Профиль формата : High@L4.1
Параметр CABAC формата : Да
Параметр ReFrames формата : 13 кадров
Идентификатор кодека : V_MPEG4/ISO/AVC
Продолжительность : 1 ч. 44 м.
Битрейт : 2095 Кбит/сек
Ширина : 1012 пикселей
Высота : 546 пикселей
Соотношение сторон : 1,85:1
Режим частоты кадров : Постоянный
Частота кадров : 23,976 кадра/сек
Цветовое пространство : YUV
Субдискретизация насыщенности : 4:2:0
Битовая глубина : 8 бит
Тип развёртки : Прогрессивная
Бит/(Пиксели*Кадры) : 0.158
Размер потока : 1,49 Гбайт (68%)
Заголовок : Parentat Guidance
Библиотека кодирования : x264 core 125 r2208 d9d2288
Настройки программы : cabac=1 / ref=13 / deblock=1:-2:-2 / analyse=0x3:0x133 / me=umh / subme=9 / psy=1 / psy_rd=1.08:0.02 / mixed_ref=1 / me_range=32 / chroma_me=1 / trellis=2 / 8x8dct=1 / cqm=0 / deadzone=21,11 / fast_pskip=0 / chroma_qp_offset=-3 / threads=6 / lookahead_threads=1 / sliced_threads=0 / nr=0 / decimate=1 / interlaced=0 / bluray_compat=0 / constrained_intra=0 / bframes=14 / b_pyramid=2 / b_adapt=2 / b_bias=0 / direct=3 / weightb=1 / open_gop=0 / weightp=2 / keyint=240 / keyint_min=23 / scenecut=40 / intra_refresh=0 / rc_lookahead=150 / rc=2pass / mbtree=1 / bitrate=2095 / ratetol=1.0 / qcomp=0.70 / qpmin=0 / qpmax=69 / qpstep=4 / cplxblur=20.0 / qblur=0.5 / vbv_maxrate=20000 / vbv_bufsize=25500 / nal_hrd=none / ip_ratio=1.35 / aq=1:0.80
Язык : English
Default : Да
Forced : Нет
Аудио #1
Идентификатор : 2
Формат : AC-3
Формат/Информация : Audio Coding 3
Расширение режима : CM (complete main)
Параметр Endianness формата : Big
Идентификатор кодека : A_AC3
Продолжительность : 1 ч. 44 м.
Вид битрейта : Постоянный
Битрейт : 448 Кбит/сек
Каналы : 6 каналов
Расположение каналов : Front: L C R, Side: L R, LFE
Частота : 48,0 КГц
Битовая глубина : 16 бит
Метод сжатия : С потерями
Размер потока : 335 Мбайт (15%)
Заголовок : Dub | DD 5.1 @ 384 kbps
Язык : Russian
Default : Да
Forced : Да
Аудио #2
Идентификатор : 3
Формат : AC-3
Формат/Информация : Audio Coding 3
Расширение режима : CM (complete main)
Параметр Endianness формата : Big
Идентификатор кодека : A_AC3
Продолжительность : 1 ч. 44 м.
Вид битрейта : Постоянный
Битрейт : 448 Кбит/сек
Каналы : 6 каналов
Расположение каналов : Front: L C R, Side: L R, LFE
Частота : 48,0 КГц
Битовая глубина : 16 бит
Метод сжатия : С потерями
Размер потока : 335 Мбайт (15%)
Заголовок : Original | DD 5.1 @ 384 kbps
Язык : English
Default : Нет
Forced : Нет
Текст #1
Идентификатор : 4
Формат : UTF-8
Идентификатор кодека : S_TEXT/UTF8
Идентификатор кодека/Информация : UTF-8 Plain Text
Язык : Russian
Default : Нет
Forced : Нет
Текст #2
Идентификатор : 5
Формат : UTF-8
Идентификатор кодека : S_TEXT/UTF8
Идентификатор кодека/Информация : UTF-8 Plain Text
Язык : English
Default : Нет
Forced : Нет
Текст #3
Идентификатор : 6
Формат : UTF-8
Идентификатор кодека : S_TEXT/UTF8
Идентификатор кодека/Информация : UTF-8 Plain Text
Заголовок : SDH
Язык : English
Default : Нет
Forced : Нет
Меню
00:00:00.000 : en:00:00:00.000
00:04:49.789 : en:00:04:49.789
00:06:42.444 : en:00:06:42.444
00:09:24.856 : en:00:09:24.856
00:13:08.162 : en:00:13:08.162
00:16:42.835 : en:00:16:42.835
00:19:11.650 : en:00:19:11.650
00:22:42.861 : en:00:22:42.861
00:25:47.379 : en:00:25:47.379
00:30:00.799 : en:00:30:00.799
00:31:15.123 : en:00:31:15.123
00:33:49.486 : en:00:33:49.486
00:35:27.334 : en:00:35:27.334
00:37:01.845 : en:00:37:01.845
00:39:54.976 : en:00:39:54.976
00:41:19.060 : en:00:41:19.060
00:48:07.009 : en:00:48:07.009
00:51:57.281 : en:00:51:57.281
00:54:04.366 : en:00:54:04.366
00:57:10.010 : en:00:57:10.010
00:59:36.740 : en:00:59:36.740
01:05:33.138 : en:01:05:33.138
01:09:09.687 : en:01:09:09.687
01:13:21.439 : en:01:13:21.439
01:15:12.591 : en:01:15:12.591
01:20:22.067 : en:01:20:22.067
01:26:16.046 : en:01:26:16.046
01:28:42.275 : en:01:28:42.275
01:31:47.210 : en:01:31:47.210
01:35:07.452 : en:01:35:07.452
01:37:28.760 : en:01:37:28.760

Рейтинг MPAA:

Рейтинг PG - Рекомендуется присутствие родителей

Этот рейтинг получают фильмы, которые требуют внимания со стороны родителей. Возможно некоторые сцены из картины родители посчитают неприемлемыми для просмотра своими детьми. Но в фильме точно отсутствуют сексуальные эпизоды и сцены с использованием наркотиков.
Рейтинг PG никогда не присвоят ленте жанра хоррор или триллер.
Скриншоты:

[Цитировать]

Топик был перенесен из форума Новинки кинопроката в форум Комедия
Henkok



Показать сообщения:    

Текущее время: 11-Дек 03:19

Часовой пояс: UTC + 3


Вы не можете начинать темы
Вы не можете отвечать на сообщения
Вы не можете редактировать свои сообщения
Вы не можете удалять свои сообщения
Вы не можете голосовать в опросах
Вы не можете прикреплять файлы к сообщениям
Вы не можете скачивать файлы

!ВНИМАНИЕ!
Сайт не предоставляет электронные версии произведений, а занимается лишь коллекционированием и каталогизацией ссылок, присылаемых и публикуемых на форуме нашими читателями. Если вы являетесь правообладателем какого-либо представленного материала и не желаете, чтобы ссылка на него находилась в нашем каталоге, свяжитесь с нами, и мы незамедлительно удалим ее. Файлы для обмена на трекере предоставлены пользователями сайта, и администрация не несет ответственности за их содержание. Просьба не заливать файлы, защищенные авторскими правами, а также файлы нелегального содержания!