[ Сегодня идет свободное скачивание без начисления Download ]


Статистика раздачи
Нет
 
   
 
Top  
 
 
-Белый лебедь / Assassins Run (2013) DVDRip«Everything you trust. Everything you know. May be a lie...»- Русское название: Белый лебедь
Оригинальное название: Assassins Run
Год выпуска: 2013
Производство: США, Россия
Жанр: Боевик, Триллер, Криминал
Перевод: Двуголосый закадровый, любительский
Субтитры: Отсутствуют
Дата мировой премьеры: 23 апреля 2013
Режиссер: Роберт Кромби
Продюсер: Назир Тляшев, Кен Швенкер, Наталья Смирнова
Актеры: Кристиан Слэйтер, Софья Ская, Коул Хаузер, Энгус МакФадьен, Марианна Халифман, Светлана Цвиченко, Александр Рапопорт
Описание фильма:
История прима-балерины, ее американского мужа и их маленькой дочери Нины. «Человек без лица», маньяк-психопат Роман, старается разрушить счастливую жизнь семьи. Герой Слейтера погибает при таинственных обстоятельствах. Майю, красивую русскую балерину, начинает преследовать мафия. Коррумпированные полицейские сажают девушку в тюрьму, а когда приходит время освобождения, ей предстоит вступить в борьбу за жизнь похищенной дочери.

Продолжительность: 01:28:07
Качество видео: DVDRip
Видеокодек: Xvid
Битрейт видео: ~975 Kbit/s
Размер кадра: 640 x 352
Аудиокодек: MP3 2.0
Битрейт аудио: 192 Kbit/s

MediaInfo

Общее
Полное имя : D:\Торренты\Белый лебедь.2013.DVDRip.avi
Формат : AVI
Формат/Информация : Audio Video Interleave
Размер файла : 704 Мбайт
Продолжительность : 1 ч. 28 м.
Общий поток : 1116 Кбит/сек
Программа кодирования : MEncoder SVN-r30881(20100311-gcc4.3.3)
Библиотека кодирования : MPlayer
Видео
Идентификатор : 0
Формат : MPEG-4 Visual
Профиль формата : Advanced Simple@L5
Параметр BVOP формата : 2
Параметр QPel формата : Нет
Параметр GMC формата : Без точки перехода
Параметр матрицы формата : Default (H.263)
Идентификатор кодека : XVID
Идентификатор кодека/Подсказка : XviD
Продолжительность : 1 ч. 28 м.
Битрейт : 975 Кбит/сек
Ширина : 640 пикс.
Высота : 352 пикс.
Соотношение сторон : 16:9
Частота кадров : 25,000 кадр/сек
Цветовое пространство : YUV
Подвыборка цветности : 4:2:0
Битовая глубина : 8 бит
Тип развёртки : Прогрессивная
Метод сжатия : С потерями
Бит/(Пиксели*Кадры) : 0.173
Размер потока : 615 Мбайт (87%)
Библиотека кодирования : XviD 1.2.1 (UTC 2008-12-04)
Аудио
Идентификатор : 1
Формат : MPEG Audio
Версия формата : Version 1
Профиль формата : Layer 3
Режим : Joint stereo
Расширение режима : MS Stereo
Идентификатор кодека : 55
Идентификатор кодека/Подсказка : MP3
Продолжительность : 1 ч. 28 м.
Вид битрейта : Постоянный
Битрейт : 128 Кбит/сек
Каналы : 2 канала
Частота : 48,0 КГц
Метод сжатия : С потерями
Задержка видео : 40 мс.
Размер потока : 80,7 Мбайт (11%)
Выравнивание : Соединение по промежуткам
Продолжительность промежутка : 24 мс. (0,60 видеокадр)
Время предзагрузки промежутка : 504 ms
Библиотека кодирования : LAME3.98ЄЄЄЄЄЄЄЄЄЄЄЄ
Скриншоты:
Время раздачи: 24/7 по возможности

[Цитировать]

Топик был перенесен из форума Новинки кинопроката в форум Боевик
Henkok



Показать сообщения:    

Текущее время: 21-Июл 00:43

Часовой пояс: UTC + 6


Вы не можете начинать темы
Вы не можете отвечать на сообщения
Вы не можете редактировать свои сообщения
Вы не можете удалять свои сообщения
Вы не можете голосовать в опросах
Вы не можете прикреплять файлы к сообщениям
Вы не можете скачивать файлы

!ВНИМАНИЕ!
Сайт не предоставляет электронные версии произведений, а занимается лишь коллекционированием и каталогизацией ссылок, присылаемых и публикуемых на форуме нашими читателями. Если вы являетесь правообладателем какого-либо представленного материала и не желаете, чтобы ссылка на него находилась в нашем каталоге, свяжитесь с нами, и мы незамедлительно удалим ее. Файлы для обмена на трекере предоставлены пользователями сайта, и администрация не несет ответственности за их содержание. Просьба не заливать файлы, защищенные авторскими правами, а также файлы нелегального содержания!