[ Сегодня идет свободное скачивание без начисления Download ]


Статистика раздачи
Нет
 
   
 
Top  
 
 
-Что? Где? Когда? Весенняя серия игр. Игра 4. Финал (2013.04.27) SATRip- Режиссер / Телекомпания: Первый канал
Название: Что? Где? Когда?
Год выпуска: 2013
Жанр: Телепередача
Ведущий: Борис Крюк
Описание:
Весенняя серия игр "Что? Где? Когда?" стартует в прямом эфире на Первом канале. Весенние игры открывают марафон длиною в год, цель которого – выявить сильнейшую команду Элитарного Клуба 2013 года. В Весенних играх примут участие четыре команды, игравшие в сезоне 2011 года, по итогам которого в Рейтинге команд Клуба они заняли первые четыре места. Три команды, занимающие в Рейтинге второе, третье и четвертое места, будут бороться за право участвовать в Финале Летних игр.
Участвует: Александр Друзь, Борис Левин, Леонид Тимофеев, Леонид Климович, Михаил Дюба, Виктор Сиднев.
Продолжительность: 01:04:31
Видеокодек: DivX
Битрейт видео: 1650 kb/s
Размер кадра: 720x400
Качество видео: SATRip
Аудиокодек: MP3, 2 ch
Битрейт аудио: 128 kb/s

MediaInfo

Формат : AVI
Формат/Информация : Audio Video Interleave
Размер файла : 825 Мбайт
Продолжительность : 1 ч. 4 м.
Общий поток : 1788 Кбит/сек
Программа кодирования : VirtualDubMod 1.5.10.2 (build 2542/release)
Библиотека кодирования : VirtualDubMod build 2542/release
Правообладатель : Shuriman
Видео
Идентификатор : 0
Формат : MPEG-4 Visual
Параметр BVOP формата : 1
Параметр QPel формата : Нет
Параметр GMC формата : Без точки перехода
Параметр матрицы формата : Default (H.263)
Режим смешивания : Сжатый битовый поток
Идентификатор кодека : DX50
Идентификатор кодека/Подсказка : DivX 5
Продолжительность : 1 ч. 4 м.
Битрейт : 1650 Кбит/сек
Ширина : 720 пикселей
Высота : 400 пикселей
Соотношение сторон : 16:9
Частота кадров : 25,000 кадров/сек
Цветовое пространство : YUV
Субдискретизация насыщенности : 4:2:0
Битовая глубина : 8 бит
Тип развёртки : Прогрессивная
Метод сжатия : С потерями
Бит/(Пиксели*Кадры) : 0.229
Размер потока : 762 Мбайт (92%)
Библиотека кодирования : DivX 6.8.5 (UTC 2009-08-20)
Аудио
Идентификатор : 1
Формат : MPEG Audio
Версия формата : Version 1
Профиль формата : Layer 3
Режим : Joint stereo
Расширение режима : MS Stereo
Идентификатор кодека : 55
Идентификатор кодека/Подсказка : MP3
Продолжительность : 1 ч. 4 м.
Вид битрейта : Постоянный
Битрейт : 128 Кбит/сек
Каналы : 2 канала
Частота : 48,0 КГц
Метод сжатия : С потерями
Задержка видео : 16 мс.
Размер потока : 59,1 Мбайт (7%)
Выравнивание : Разделение по промежуткам
Продолжительность промежутка : 40 мс. (1,00 видеокадр)
Время предзагрузки промежутка : 500 мс.
Скриншоты:

[Цитировать]



Показать сообщения:    

Текущее время: 11-Дек 05:19

Часовой пояс: UTC + 3


Вы не можете начинать темы
Вы не можете отвечать на сообщения
Вы не можете редактировать свои сообщения
Вы не можете удалять свои сообщения
Вы не можете голосовать в опросах
Вы не можете прикреплять файлы к сообщениям
Вы не можете скачивать файлы

!ВНИМАНИЕ!
Сайт не предоставляет электронные версии произведений, а занимается лишь коллекционированием и каталогизацией ссылок, присылаемых и публикуемых на форуме нашими читателями. Если вы являетесь правообладателем какого-либо представленного материала и не желаете, чтобы ссылка на него находилась в нашем каталоге, свяжитесь с нами, и мы незамедлительно удалим ее. Файлы для обмена на трекере предоставлены пользователями сайта, и администрация не несет ответственности за их содержание. Просьба не заливать файлы, защищенные авторскими правами, а также файлы нелегального содержания!