[ Сегодня идет свободное скачивание без начисления Download ]


Статистика раздачи
Нет
 
   
 
Top  
 
 
Большая разница в Одессе. 3-й Фестиваль пародий. День первый. Год выпуска: 2012
Страна: Россия
Производство: ООО Продюсерский Центр "Среда", по заказу ОАО "ПЕРВЫЙ КАНАЛ"
Жанр: Юмор, пародии
Продюсеры: Руслан Сорокин, Константин Маньковский
Ведущие: Иван Ургант и Александр Цекало
Перевод: Не требуется
Субтитры: Отсутствуют
Описание: В столице юмора Одессе прошел третий Международный фестиваль юмора "Большая Разница в Одессе". Фестиваль проходил в августа в Одесском национальном театре оперы и балета. Помимо двух конкурсных дней и гала – концерта, в рамках фестиваля прошли вечеринки открытия и закрытия на которых выступили группы "Фрукты" и "Jukebox".
Одним из главных сюрпризов фестиваля в нынешнем году стало выступление иностранных гостей-комиков международного уровня: Mozart Group, Ireneusz Krosny, David Shiner, Eugeney Voronin, Raymond Crowe, Michel Lauzi?re , которые поражали публику своими комическими номерами в рамках третьего дня: гала-концерта. Помимо иностранных гостей в день фестиваля свои номера показали труппа "Большой Разницы", "Квартала 95", "Дети лейтенанта Шмидта".
А еще в рамках фестиваля состоялась съемка пародийных боев звезд шоубизнеса: покидать друг друга на ринге сошлись: Филипп Киркоров, Верка Сердючка, Анастасия Волочкова, Тимати, Анатолий Вассерман, Стас Михайлов, Сергей Зверев, Александр Кержаков, Никита Джигурда. Вели судейство Дмитрий Губерниев и Дмитрий Нагиев.

Качество: SATRip
Продолжительность: 01:34:07
Формат: AVI
Видео кодек: DivX
Аудио кодек: MP3
Видео: 720x400 (16:9), 25 fps, DivX ~1501 kbps avg, 0.20 bit/pixel
Аудио: 48 kHz, MPEG Layer 3, 2 ch, ~192 kbps

Media Info

E:\Users\User\Downloads\Festival.bolshoi.raznicu.v.Odesse.den.1.(2012).SATRip.avi
   General
      Complete name : E:\Users\User\Downloads\Festival.bolshoi.raznicu.v.Odesse.den.1.(2012).SATRip.avi
      Format : AVI
      Format/Info : Audio Video Interleave
      File size : 1.12 GiB
      Duration : 1h 34mn
      Overall bit rate : 1 703 Kbps
      Writing application : VirtualDubMod 1.5.10.3 (build 2550/release)
      Writing library : VirtualDubMod build 2550/release
   Video #0
      ID : 0
      Format : MPEG-4 Visual
      Format settings, BVOP : 1
      Format settings, QPel : No
      Format settings, GMC : No warppoints
      Format settings, Matrix : Default (H.263)
      Muxing mode : Packed bitstream
      Codec ID : DX50
      Codec ID/Hint : DivX 5
      Duration : 1h 34mn
      Bit rate : 1 501 Kbps
      Width : 720 pixels
      Height : 400 pixels
      Display aspect ratio : 16:9
      Frame rate : 25.000 fps
      Color space : YUV
      Chroma subsampling : 4:2:0
      Bit depth : 8 bits
      Scan type : Progressive
      Compression mode : Lossy
      Bits/(Pixel*Frame) : 0.208
      Stream size : 1 011 MiB (88%)
      Writing library : DivX 6.8.5 (UTC 2009-08-20)
   Audio #1
      ID : 1
      Format : MPEG Audio
      Format version : Version 1
      Format profile : Layer 3
      Mode : Joint stereo
      Codec ID : 55
      Codec ID/Hint : MP3
      Duration : 1h 34mn
      Bit rate mode : Constant
      Bit rate : 192 Kbps
      Channel(s) : 2 channels
      Sampling rate : 48.0 KHz
      Compression mode : Lossy
      Stream size : 129 MiB (11%)
      Alignment : Split accross interleaves
      Interleave, duration : 40 ms (1.00 video frame)
      Interleave, preload duration : 500 ms

Скриншоты



[Цитировать]



Показать сообщения:    

Текущее время: 10-Дек 11:53

Часовой пояс: UTC + 3


Вы не можете начинать темы
Вы не можете отвечать на сообщения
Вы не можете редактировать свои сообщения
Вы не можете удалять свои сообщения
Вы не можете голосовать в опросах
Вы не можете прикреплять файлы к сообщениям
Вы не можете скачивать файлы

!ВНИМАНИЕ!
Сайт не предоставляет электронные версии произведений, а занимается лишь коллекционированием и каталогизацией ссылок, присылаемых и публикуемых на форуме нашими читателями. Если вы являетесь правообладателем какого-либо представленного материала и не желаете, чтобы ссылка на него находилась в нашем каталоге, свяжитесь с нами, и мы незамедлительно удалим ее. Файлы для обмена на трекере предоставлены пользователями сайта, и администрация не несет ответственности за их содержание. Просьба не заливать файлы, защищенные авторскими правами, а также файлы нелегального содержания!