[ Сегодня идет свободное скачивание без начисления Download ]


Статистика раздачи
Нет
 
   
 
Top  
 
 
Трансформеры Прайм / Transformers Prime
Страна: Япония, Сша
Жанр: Меха, приключения
Продолжительность: ~00:22:00
Год выпуска: 2013
Перевод: Многоголосый закадровый (LE-Production)
Русские субтитры: нет
Режиссёр: Давид Хартман / David Hartman
Роли озвучивали: loster01, Shoker & Emeri
Озвучено при поддержке: monaxmc
Описание: Трансформеры: Прайм являются очередной франшизой сериала Трансформеры, который вышел осенью 2010 года.
Новые Трансформеры идут по сюжету Transformers: War for Cybertron, основанный на видеоигре, в которой события происходят на родной планете Трансформеров.
Новая история войны Десептиконов и Автоботов происходит на Земле.
Список серий:
01 - Даркмаунт, штат Невада (Darkmount, NV)
02 - Разбросанные (Scattered)
03 - Добыча (Prey)
04 - Сопротивление (Rebellion)
Семпл: тут
Качество: WEB-DL
Формат: MKV
Видео: H.264, 1280x720, 23.976fps, ~4 500 Kbps
Аудио: Русский, Dolby AC3, 48kHz, 6ch, 384 Kbps
Аудио 2: Оригинал, Dolby AC3, 48kHz, 6ch, 384 Kbps
Субтитры: отсутствуют

Подробные технические данные

Format : MatroskaFormat version : Version 4 / Version 2File size : 825 MiBDuration : 22mn 3sOverall bit rate : 5 227 KbpsMovie name : LE-ProductionEncoded date : UTC 2013-04-01 13:55:10Writing application : mkvmerge v6.0.0 ('Coming Up For Air') built on Jan 20 2013 09:52:00Writing library : libebml v1.3.0 + libmatroska v1.4.0
VideoID : 1Format : AVCFormat/Info : Advanced Video CodecFormat profile : High@L4.0Format settings, CABAC : YesFormat settings, ReFrames : 8 framesCodec ID : V_MPEG4/ISO/AVCDuration : 22mn 3sBit rate : 4 500 KbpsWidth : 1 280 pixelsHeight : 720 pixelsDisplay aspect ratio : 16:9Frame rate mode : ConstantFrame rate : 23.976 fpsColor space : YUVChroma subsampling : 4:2:0Bit depth : 8 bitsScan type : ProgressiveBits/(Pixel*Frame) : 0.204Stream size : 687 MiB (83%)Title : LE-ProductionWriting library : x264 core 119 r2106 07efeb4Encoding settings : cabac=1 / ref=8 / deblock=1:0:0 / analyse=0x3:0x133 / me=umh / subme=7 /psy=1 / psy_rd=0.40:0.00 / mixed_ref=1 / me_range=16 / chroma_me=1 / trellis=2 / 8x8dct=1 / cqm=0 /deadzone=21,11 / fast_pskip=0 / chroma_qp_offset=-2 / threads=3 / sliced_threads=0 / nr=0 / decimate=1 /interlaced=0 / bluray_compat=0 / constrained_intra=0 / bframes=16 / b_pyramid=2 / b_adapt=1 / b_bias=0 /direct=1 / weightb=0 / open_gop=0 / weightp=2 / keyint=250 / keyint_min=23 / scenecut=40 / intra_refresh=0 /rc_lookahead=50 / rc=abr / mbtree=1 / bitrate=4500 / ratetol=1.0 / qcomp=0.70 / qpmin=0 / qpmax=69 /qpstep=4 / ip_ratio=1.40 / aq=1:0.60Language : RussianDefault : YesForced : No
Audio #1ID : 2Format : AC-3Format/Info : Audio Coding 3Mode extension : CM (complete main)Format settings, Endianness : BigCodec ID : A_AC3Duration : 22mn 3sBit rate mode : ConstantBit rate : 384 KbpsChannel(s) : 6 channelsChannel positions : Front: L C R, Side: L R, LFESampling rate : 48.0 KHzBit depth : 16 bitsCompression mode : LossyStream size : 60.6 MiB (7%)Title : LE-Production(loster01, Emeri & Shoker)Language : RussianDefault : YesForced : No
Audio #2ID : 3Format : AC-3Format/Info : Audio Coding 3Mode extension : CM (complete main)Format settings, Endianness : BigCodec ID : A_AC3Duration : 22mn 3sBit rate mode : ConstantBit rate : 384 KbpsChannel(s) : 6 channelsChannel positions : Front: L C R, Side: L R, LFESampling rate : 48.0 KHzBit depth : 16 bitsCompression mode : LossyStream size : 60.6 MiB (7%)Language : EnglishDefault : NoForced : No

Скриншоты

[Цитировать]

Топик был перенесен из форума Трансформеры в форум Зарубежные мультфильмы
Prizr@k



Показать сообщения:    

Текущее время: 08-Дек 17:14

Часовой пояс: UTC + 3


Вы не можете начинать темы
Вы не можете отвечать на сообщения
Вы не можете редактировать свои сообщения
Вы не можете удалять свои сообщения
Вы не можете голосовать в опросах
Вы не можете прикреплять файлы к сообщениям
Вы не можете скачивать файлы

!ВНИМАНИЕ!
Сайт не предоставляет электронные версии произведений, а занимается лишь коллекционированием и каталогизацией ссылок, присылаемых и публикуемых на форуме нашими читателями. Если вы являетесь правообладателем какого-либо представленного материала и не желаете, чтобы ссылка на него находилась в нашем каталоге, свяжитесь с нами, и мы незамедлительно удалим ее. Файлы для обмена на трекере предоставлены пользователями сайта, и администрация не несет ответственности за их содержание. Просьба не заливать файлы, защищенные авторскими правами, а также файлы нелегального содержания!