[ Сегодня идет свободное скачивание без начисления Download ]


Статистика раздачи
Нет
 
   
 
Top  
 
 
-Возвращение героя / The Last Stand (2013) BDRip- Русское название: Возвращение героя
Оригинальное название: The Last Stand
Год выпуска: 2013
Производство США / Di Bonaventura Pictures
Жанр: Боевик, триллер, криминал-Перевод: Дублированный [лицензия]
Субтитры: Вшитые отключаемые
Язык субтитров: Русский-Дата мировой премьеры: 12 января 2013
Дата российской премьеры: 21 февраля 2013, «UPI», «Премиум Фильм»
Дата выхода DVD релиза: 25 апреля 2013, «CP Дистрибуция»-Режиссер: Ким Чжи-ун
Актеры: Арнольд Шварценеггер, Форест Уитакер, Джонни Ноксвилл, Родриго Санторо, Джейми Александр, Луис Гузман, Эдуардо Норьега, Петер Стормаре, Зак Гилфорд, Генезис Родригез, Сонни Лэндэм, Гарри Дин Стэнтон, Джон Патрик Амедори, Дэниэл Хенни, Титос Менчаса, Ричард Диллард, Мэтью Грир, Крис Браунинг, Кристиана Люкас, Рио Александр, Джеймс Барнетт, Дэвид Мидфандер, Тейт Флетчер, Кристен Рейкс, Марк Сивертсен, Джефф Сандерс, Жермен Вашингтон, Мелисса Смит, Эдди Дж. Фернандез, Дэвид Хаус, Диана Р. Люпо, Дэвид Килд, Кирон Леман, Билли Блэр, Марио Морено, Кент Киркпатрик, Дитер Раутер, Луис Бремс, Елиас Галлегос, Грегори Лейкер, Дон Амбабо, Терри Паркс, Росс Келли-Описание фильма:
Самая опасная и жестокая банда наркоторговцев сбегает из-под конвоя ФБР. Прихватив заложника, они мчатся к мексиканской границе на бронированной, оснащенной первоклассным вооружением машине. У них на пути стоит лишь тихий городок, за порядком в котором следит шериф Оуенс. Когда-то он был одним из лучших полицейских Лос-Анджелеса, теперь он вернулся.- -Автор рипа: Vaippp
Продолжительность: 01:47:03
Качество видео: BDRip
Видео: MPEG-4 AVC/H.264, 2021 Кбит/сек, 1032x430, 24.000 кадр/сек
Аудио #1: AC3 5.1, 448 kbps, 48 KHz /Русский/
Аудио #2: AC3 5.1, 448 kbps, 48 KHz /Английский/

Mediainfo:

General
Format : Matroska
File size : 2.18 GiB
Duration : 1h 47mn
Overall bit rate : 2 919 Kbps
Movie name : The Last Stand (2013) - Vaippp
Encoded date : UTC 2013-04-22 01:32:28
Writing application : mkvmerge v6.1.0 ('Old Devil') built on Mar 2 2013 14:32:37
Writing library : libebml v1.3.0 + libmatroska v1.4.0
Video #1
ID : 1
Format : AVC
Format/Info : Advanced Video Codec
Format settings, CABAC : Yes
Format settings, ReFrames : 14 frames
Codec ID : V_MPEG4/ISO/AVC
Duration : 1h 47mn
Bit rate : 2 022 Kbps
Width : 1 032 pixels
Height : 430 pixels
Display aspect ratio : 2.40:1
Frame rate : 24.000 fps
Color space : YUV
Chroma subsampling : 4:2:0
Bit depth : 8 bits
Scan type : Progressive
Bits/(Pixel*Frame) : 0.190
Stream size : 1.47 GiB (67%)
Title : Vaippp @ 2022 Kbps
Writing library : x264 core 130 r2273 b3065e6
Language : English
Color primaries : BT.709-5, BT.1361, IEC 61966-2-4, SMPTE RP177
Transfer characteristics : BT.709-5, BT.1361
Matrix coefficients : BT.709-5, BT.1361, IEC 61966-2-4 709, SMPTE RP177
Audio #2
ID : 2
Format : AC-3
Format/Info : Audio Coding 3
Mode extension : CM (complete main)
Codec ID : A_AC3
Duration : 1h 47mn
Bit rate mode : Constant
Bit rate : 448 Kbps
Channel(s) : 6 channels
Channel positions : Front: L C R, Side: L R, LFE
Sampling rate : 48.0 KHz
Bit depth : 16 bits
Compression mode : Lossy
Stream size : 343 MiB (15%)
Title : AC3 DD 5.1 @ 448 Kbps DUB - Blu-Ray RUS
Language : Russian
Audio #3
ID : 3
Format : AC-3
Format/Info : Audio Coding 3
Mode extension : CM (complete main)
Codec ID : A_AC3
Duration : 1h 47mn
Bit rate mode : Constant
Bit rate : 448 Kbps
Channel(s) : 6 channels
Channel positions : Front: L C R, Side: L R, LFE
Sampling rate : 48.0 KHz
Bit depth : 16 bits
Compression mode : Lossy
Stream size : 343 MiB (15%)
Title : AC3 DD 5.1 @ 448 Kbps Original - Blu-Ray RUS
Language : English
Text #4
ID : 4
Format : UTF-8
Codec ID : S_TEXT/UTF8
Codec ID/Info : UTF-8 Plain Text
Language : Russian
Скриншоты:

Время раздачи: круглосуточно

[Цитировать]

Топик был перенесен из форума Новинки кинопроката в форум Боевик
Henkok



Показать сообщения:    

Текущее время: 06-Дек 15:12

Часовой пояс: UTC + 3


Вы не можете начинать темы
Вы не можете отвечать на сообщения
Вы не можете редактировать свои сообщения
Вы не можете удалять свои сообщения
Вы не можете голосовать в опросах
Вы не можете прикреплять файлы к сообщениям
Вы не можете скачивать файлы

!ВНИМАНИЕ!
Сайт не предоставляет электронные версии произведений, а занимается лишь коллекционированием и каталогизацией ссылок, присылаемых и публикуемых на форуме нашими читателями. Если вы являетесь правообладателем какого-либо представленного материала и не желаете, чтобы ссылка на него находилась в нашем каталоге, свяжитесь с нами, и мы незамедлительно удалим ее. Файлы для обмена на трекере предоставлены пользователями сайта, и администрация не несет ответственности за их содержание. Просьба не заливать файлы, защищенные авторскими правами, а также файлы нелегального содержания!