[ Сегодня идет свободное скачивание без начисления Download ]


Статистика раздачи
Нет
 
   
 
Top  
 
 
-Возвращение героя / The Last Stand (2013) BDRip- Русское название: Возвращение героя
Оригинальное название: The Last Stand
Год выпуска: 2013
Производство: США / Di Bonaventura Pictures
Жанр: Боевик, Триллер, Криминал
Перевод: Дублированный
Субтитры: Вшитые отключаемые
Язык субтитров: Русский
Дата мировой премьеры: 12 января 2013
Дата российской премьеры: 21 февраля 2013, «UPI», «Премиум Фильм»
Дата выхода DVD релиза: 25 апреля 2013, «CP Дистрибуция»
Режиссер: Ким Чжи Ун / Kim Ji Woon
Актеры: Арнольд Шварценеггер (Ray Owens), Форест Уитакер (Agent John Bannister), Джонни Ноксвил (Lewis Dinkum), Родриго Санторо (Frank Martinez), Джейми Александр (Sarah Torrance), Луис Гузман (Mike Figuerola), Эдуардо Норьега (Gabriel Cortez), Петер Стормаре (Burrell), Зэк Гилфорд (Jerry Bailey), Генезис Родригез (Agent Ellen Richards), Сонни Лэндэм (Henry)
Описание фильма:
Самая опасная и жестокая банда наркоторговцев сбегает из-под конвоя ФБР. Прихватив заложника, они мчатся к мексиканской границе на бронированной, оснащенной первоклассным вооружением машине. У них на пути стоит лишь тихий городок, за порядком в котором следит шериф Оуенс. Когда-то он был одним из лучших полицейских Лос-Анджелеса, теперь он вернулся.

Продолжительность: 01:47:03
Качество видео: BDRip-AVC
Видео: MPEG-4 AVC/H.264,, 960x402 (2.38:1), 24.000 fps, 1504 Кbps, 0.162 bit/pixel
Аудио: 48 kHz, AC3 Dolby Digital, 3/2 (L,C,R,l,r) + LFE ch, ~448.00 kbps avg

MI

Общее
Уникальный идентификатор : 210039035909715652003246887319995417237 (0x9E040BFFFDE5F82CA81D6B64C88C0295)
Полное имя : Vozvraweniye.Geroya.2013.D.BDRip.x264.potroks.mkv
Формат : Matroska
Версия формата : Version 4 / Version 2
Размер файла : 1,46 Гбайт
Продолжительность : 1 ч. 47 м.
Общий поток : 1953 Кбит/сек
Название фильма : -=POTROKS=-
Дата кодирования : UTC 2013-04-22 14:45:20
Программа кодирования : mkvmerge v5.9.0 ('On The Loose') built on Dec 15 2012 16:39:58
Библиотека кодирования : libebml v1.3.0 + libmatroska v1.4.0
Видео
Идентификатор : 1
Формат : AVC
Формат/Информация : Advanced Video Codec
Профиль формата : High@L4.1
Параметр CABAC формата : Да
Параметр ReFrames формата : 11 кадров
Идентификатор кодека : V_MPEG4/ISO/AVC
Продолжительность : 1 ч. 47 м.
Битрейт : 1504 Кбит/сек
Ширина : 960 пикселей
Высота : 402 пикселя
Соотношение сторон : 2,40:1
Режим частоты кадров : Постоянный
Частота кадров : 24,000 кадра/сек
Цветовое пространство : YUV
Субдискретизация насыщенности : 4:2:0
Битовая глубина : 8 бит
Тип развёртки : Прогрессивная
Бит/(Пиксели*Кадры) : 0.162
Размер потока : 1,10 Гбайт (75%)
Заголовок : The Last Stand
Библиотека кодирования : x264 core 125 r2208 d9d2288
Настройки программы : cabac=1 / ref=11 / deblock=1:-2:-2 / analyse=0x3:0x133 / me=umh / subme=9 / psy=1 / psy_rd=1.03:0.00 / mixed_ref=1 / me_range=32 / chroma_me=1 / trellis=2 / 8x8dct=1 / cqm=0 / deadzone=21,11 / fast_pskip=0 / chroma_qp_offset=-2 / threads=6 / lookahead_threads=1 / sliced_threads=0 / nr=0 / decimate=1 / interlaced=0 / bluray_compat=0 / constrained_intra=0 / bframes=12 / b_pyramid=2 / b_adapt=2 / b_bias=0 / direct=3 / weightb=1 / open_gop=0 / weightp=2 / keyint=240 / keyint_min=23 / scenecut=40 / intra_refresh=0 / rc_lookahead=100 / rc=2pass / mbtree=1 / bitrate=1504 / ratetol=1.0 / qcomp=0.70 / qpmin=0 / qpmax=69 / qpstep=3 / cplxblur=20.0 / qblur=0.5 / vbv_maxrate=20000 / vbv_bufsize=20000 / nal_hrd=none / ip_ratio=1.35 / aq=2:0.90
Язык : English
Default : Да
Forced : Нет
Аудио
Идентификатор : 2
Формат : AC-3
Формат/Информация : Audio Coding 3
Расширение режима : CM (complete main)
Параметр Endianness формата : Big
Идентификатор кодека : A_AC3
Продолжительность : 1 ч. 47 м.
Вид битрейта : Постоянный
Битрейт : 448 Кбит/сек
Каналы : 6 каналов
Расположение каналов : Front: L C R, Side: L R, LFE
Частота : 48,0 КГц
Битовая глубина : 16 бит
Метод сжатия : С потерями
Размер потока : 343 Мбайт (23%)
Заголовок : Dub | DD 5.1 @ 448 kbps - Blu-Ray RUS
Язык : Russian
Default : Да
Forced : Да
Текст
Идентификатор : 3
Формат : UTF-8
Идентификатор кодека : S_TEXT/UTF8
Идентификатор кодека/Информация : UTF-8 Plain Text
Язык : Russian
Default : Нет
Forced : Нет
Меню
00:00:00.000 : en:Chapter 01
00:05:50.791 : en:Chapter 02
00:13:07.375 : en:Chapter 03
00:22:35.083 : en:Chapter 04
00:32:58.791 : en:Chapter 05
00:41:50.166 : en:Chapter 06
00:48:05.750 : en:Chapter 07
00:57:00.208 : en:Chapter 08
01:07:55.291 : en:Chapter 09
01:15:02.125 : en:Chapter 10
01:22:42.458 : en:Chapter 11
01:27:25.833 : en:Chapter 12

log@x.264

x264 [info]: frame I:1400 Avg QP:17.47 size: 44926
x264 [info]: frame P:42782 Avg QP:19.65 size: 14135
x264 [info]: frame B:109978 Avg QP:21.73 size: 4908
x264 [info]: consecutive B-frames: 6.6% 6.6% 12.5% 25.3% 16.8% 23.1% 4.0% 1.6% 1.2% 0.6% 0.6% 0.5% 0.6%
x264 [info]: mb I I16..4: 18.5% 61.7% 19.8%
x264 [info]: mb P I16..4: 5.2% 13.0% 2.5% P16..4: 37.8% 13.6% 11.4% 0.7% 0.2% skip:15.6%
x264 [info]: mb B I16..4: 0.4% 1.5% 0.4% B16..8: 36.1% 8.8% 2.3% direct: 4.8% skip:45.6% L0:42.2% L1:44.7% BI:13.1%
x264 [info]: 8x8 transform intra:63.1% inter:66.8%
x264 [info]: direct mvs spatial:96.8% temporal:3.2%
x264 [info]: coded y,uvDC,uvAC intra: 63.8% 74.4% 42.4% inter: 18.9% 24.0% 2.9%
x264 [info]: i16 v,h,dc,p: 47% 19% 7% 27%
x264 [info]: i8 v,h,dc,ddl,ddr,vr,hd,vl,hu: 17% 12% 7% 8% 11% 11% 12% 10% 12%
x264 [info]: i4 v,h,dc,ddl,ddr,vr,hd,vl,hu: 21% 11% 5% 7% 12% 12% 12% 9% 11%
x264 [info]: i8c dc,h,v,p: 38% 28% 21% 14%
x264 [info]: Weighted P-Frames: Y:6.1% UV:2.1%
x264 [info]: ref P L0: 51.4% 11.6% 14.7% 5.8% 4.2% 3.6% 2.7% 1.7% 1.3% 1.3% 1.3% 0.4% 0.0%
x264 [info]: ref B L0: 77.9% 9.6% 4.9% 2.2% 1.7% 1.3% 1.1% 0.7% 0.4% 0.2%
x264 [info]: ref B L1: 93.2% 6.8%
x264 [info]: kb/s:1503.72
Скриншоты:

Время раздачи: 24/7

[Цитировать]

Топик был перенесен из форума Новинки кинопроката в форум Боевик
Henkok



Показать сообщения:    

Текущее время: 28-Апр 16:03

Часовой пояс: UTC + 6


Вы не можете начинать темы
Вы не можете отвечать на сообщения
Вы не можете редактировать свои сообщения
Вы не можете удалять свои сообщения
Вы не можете голосовать в опросах
Вы не можете прикреплять файлы к сообщениям
Вы не можете скачивать файлы

!ВНИМАНИЕ!
Сайт не предоставляет электронные версии произведений, а занимается лишь коллекционированием и каталогизацией ссылок, присылаемых и публикуемых на форуме нашими читателями. Если вы являетесь правообладателем какого-либо представленного материала и не желаете, чтобы ссылка на него находилась в нашем каталоге, свяжитесь с нами, и мы незамедлительно удалим ее. Файлы для обмена на трекере предоставлены пользователями сайта, и администрация не несет ответственности за их содержание. Просьба не заливать файлы, защищенные авторскими правами, а также файлы нелегального содержания!