[ Сегодня идет свободное скачивание без начисления Download ]


Статистика раздачи
Нет
 
   
 
Top  
 
 
Большая разница в Одессе. Фестиваль пародий Год выпуска: 2012
Страна: Россия
Производство: Первый канал
Жанр: Юмор, пародии
Ведущие: Иван Ургант и Александр Цекало
В ролях: В фестивале приняли участие Людмила Гурченко, Рената Литвинова, Верка Сердючка, Никита Джигурда, Ксения Собчак, Андрей Малахов и др. В жюри фестиваля, оценивавшее выступления участников, вошли Лариса Долина, Михаил Боярский, Тина Канделаки и Анатолий Вассерман. Пародист, получивший Гран-При, был зачислен в труппу актеров "Большой разницы".
Перевод: Не требуется
Субтитры: Отсутствуют
Описание: Представляем вниманию зрителей фестиваль пародий "Большая разница", прошедший в минувшем августе в столице юмора Одессе. На сцене Оперного театра собрались самые одаренные молодые пародисты из России, Украины и Беларуси, а также всенародно любимые актеры "Большой разницы" (и, конечно, ее незаменимые ведущие Александр Цекало и Иван Ургант), чтобы подарить стране прекрасное настроение.
[kp]251733[/kp] [imdb]tt0036342[/imdb]
Качество: SATRip
Продолжительность: ~01:40:00
Формат: AVI
Видео кодек: XviD
Аудио кодек: MP3
Видео: 656x480 (1.37:1), 25 fps, XviD build 47 ~1700 kbps avg, 0.21 bit/pixel
Аудио: 48 kHz, MPEG Layer 3, 2 ch, ~192.00 kbps avg

Media Info

E:\Users\User\Downloads\Bolshaya.Raznica.v.Odesse.SATRip\Bolshaya.Raznica.v.Odesse.Final.SATRip.avi
   General
      Complete name : E:\Users\User\Downloads\Bolshaya.Raznica.v.Odesse.SATRip\Bolshaya.Raznica.v.Odesse.Final.SATRip.avi
      Format : AVI
      Format/Info : Audio Video Interleave
      File size : 1.36 GiB
      Duration : 1h 36mn
      Overall bit rate : 2 009 Kbps
      Writing application : VirtualDubMod 1.5.10.2 (build 2542/release)
      Writing library : VirtualDubMod build 2542/release
   Video #0
      ID : 0
      Format : MPEG-4 Visual
      Format profile : Advanced Simple@L5
      Format settings, BVOP : 1
      Format settings, QPel : No
      Format settings, GMC : No warppoints
      Format settings, Matrix : Default (MPEG)
      Codec ID : XVID
      Codec ID/Hint : XviD
      Duration : 1h 36mn
      Bit rate : 1 808 Kbps
      Width : 656 pixels
      Height : 480 pixels
      Display aspect ratio : 4:3
      Frame rate : 25.000 fps
      Color space : YUV
      Chroma subsampling : 4:2:0
      Bit depth : 8 bits
      Scan type : Progressive
      Compression mode : Lossy
      Bits/(Pixel*Frame) : 0.230
      Stream size : 1.22 GiB (90%)
      Writing library : XviD 1.2.0.dev47 (UTC 2006-11-01)
   Audio #1
      ID : 1
      Format : MPEG Audio
      Format version : Version 1
      Format profile : Layer 3
      Codec ID : 55
      Codec ID/Hint : MP3
      Duration : 1h 36mn
      Bit rate mode : Constant
      Bit rate : 192 Kbps
      Channel(s) : 2 channels
      Sampling rate : 48.0 KHz
      Compression mode : Lossy
      Stream size : 133 MiB (10%)
      Alignment : Aligned on interleaves
      Interleave, duration : 40 ms (1.00 video frame)
      Interleave, preload duration : 504 ms
      Writing library : LAME3.98r
      Encoding settings : -m s -V 4 -q 2 -lowpass 18.6 -b 192

Скриншоты



[Цитировать]



Показать сообщения:    

Текущее время: 10-Дек 09:59

Часовой пояс: UTC + 3


Вы не можете начинать темы
Вы не можете отвечать на сообщения
Вы не можете редактировать свои сообщения
Вы не можете удалять свои сообщения
Вы не можете голосовать в опросах
Вы не можете прикреплять файлы к сообщениям
Вы не можете скачивать файлы

!ВНИМАНИЕ!
Сайт не предоставляет электронные версии произведений, а занимается лишь коллекционированием и каталогизацией ссылок, присылаемых и публикуемых на форуме нашими читателями. Если вы являетесь правообладателем какого-либо представленного материала и не желаете, чтобы ссылка на него находилась в нашем каталоге, свяжитесь с нами, и мы незамедлительно удалим ее. Файлы для обмена на трекере предоставлены пользователями сайта, и администрация не несет ответственности за их содержание. Просьба не заливать файлы, защищенные авторскими правами, а также файлы нелегального содержания!