[ Сегодня идет свободное скачивание без начисления Download ]


Статистика раздачи
Нет
 
   
 
Top  
 
 
Большая разница в Одессе. 2-й Фестиваль пародий. День первый. Год выпуска: 2012
Страна: Россия
Производство: ООО Продюсерский Центр "Среда", по заказу ОАО "ПЕРВЫЙ КАНАЛ"
Жанр: Юмор, пародии
Ведущие: Иван Ургант и Александр Цекало
Продюсеры: Руслан Сорокин, Константин Маньковский
Перевод: Не требуется
Субтитры: Отсутствуют
Описание: В столице юмора прошел второй Международный фестиваль пародий "Большая Разница в Одессе". В сравнении с прошлым годом фестиваль прошел с еще большим размахом, что позволило расширить и конкурсную программу. В роли специальных гостей перед гостями фестиваля выступили отлично знакомые российским зрителям участники проектов "Прожекторперисхилтон" и "Квартет И", а также мастера тонких музыкальных пародий "Igudesman&Joo". Конечно, с собственной программой скетчей выступила и постоянная труппа актеров шоу "Большая разница"
В жюри конкурса пародистов вошли Ксения Собчак, Сергей Безруков, Борис Бурда и Михаил Боярский. Среди гостей фестиваля были Гарик Харламов, Александр Олейников, Кристина Асмус, Светлана Лобода, Олег Скрипка и многие другие.
Среди молодых конкурсантов зрители отметили выступления В.Шниткова, пародировавшего Гарика Харламова (последний пришел в восторг от увиденного). Заметно отреагировал на дружеский шарж в свой адрес и член жюри Сергей Безруков. В мультипародиях вне конкуренции оказался 10-летний Ерема Черевко из Волгограда. Ярких номеров было великое множество, ведь в нынешнем году, благодаря расширенной географии конкурса, в нем принимали участие жители не только России, но также Украины, Белоруссии, Казахстана, Киргизии, Израиля и других государств.

Качество: SATRip
Продолжительность: 02:03:45
Формат: AVI
Видео кодек: XviD
Аудио кодек: MP3
Видео: 704x400 (16/9), 25 fps, MPEG-4/ASP, 1484bps, 0.21 bit/pixel
Аудио: 48 kHz, MPEG Layer 3, 1 ch, ~112.00 kbps

Media Info

E:\Users\User\Downloads\BR_v_Odesse.1day.2011.SATRip.avi
   General
      Complete name : E:\Users\User\Downloads\BR_v_Odesse.1day.2011.SATRip.avi
      Format : AVI
      Format/Info : Audio Video Interleave
      File size : 1.39 GiB
      Duration : 2h 3mn
      Overall bit rate : 1 606 Kbps
      Writing application : VirtualDubMod 1.5.10.2 (build 2542/release)
      Writing library : VirtualDubMod build 2542/release
   Video #0
      ID : 0
      Format : MPEG-4 Visual
      Format profile : Advanced Simple@L5
      Format settings, BVOP : 1
      Format settings, QPel : No
      Format settings, GMC : No warppoints
      Format settings, Matrix : Default (MPEG)
      Codec ID : XVID
      Codec ID/Hint : XviD
      Duration : 2h 3mn
      Bit rate : 1 484 Kbps
      Width : 704 pixels
      Height : 400 pixels
      Display aspect ratio : 16:9
      Frame rate : 25.000 fps
      Color space : YUV
      Chroma subsampling : 4:2:0
      Bit depth : 8 bits
      Scan type : Progressive
      Compression mode : Lossy
      Bits/(Pixel*Frame) : 0.211
      Stream size : 1.28 GiB (92%)
      Writing library : XviD 1.2.1 (UTC 2008-12-04)
   Audio #1
      ID : 1
      Format : MPEG Audio
      Format version : Version 1
      Format profile : Layer 3
      Codec ID : 55
      Codec ID/Hint : MP3
      Duration : 2h 3mn
      Bit rate mode : Constant
      Bit rate : 112 Kbps
      Channel(s) : 1 channel
      Sampling rate : 44.1 KHz
      Compression mode : Lossy
      Stream size : 99.1 MiB (7%)
      Alignment : Split accross interleaves
      Interleave, duration : 40 ms (1.00 video frame)
      Interleave, preload duration : 500 ms
      Writing library : LAME3.98r
      Encoding settings : -m m -V 4 -q 0 -lowpass 20.5 -b 112

Скриншоты



[Цитировать]



Показать сообщения:    

Текущее время: 09-Дек 05:01

Часовой пояс: UTC + 3


Вы не можете начинать темы
Вы не можете отвечать на сообщения
Вы не можете редактировать свои сообщения
Вы не можете удалять свои сообщения
Вы не можете голосовать в опросах
Вы не можете прикреплять файлы к сообщениям
Вы не можете скачивать файлы

!ВНИМАНИЕ!
Сайт не предоставляет электронные версии произведений, а занимается лишь коллекционированием и каталогизацией ссылок, присылаемых и публикуемых на форуме нашими читателями. Если вы являетесь правообладателем какого-либо представленного материала и не желаете, чтобы ссылка на него находилась в нашем каталоге, свяжитесь с нами, и мы незамедлительно удалим ее. Файлы для обмена на трекере предоставлены пользователями сайта, и администрация не несет ответственности за их содержание. Просьба не заливать файлы, защищенные авторскими правами, а также файлы нелегального содержания!