[ Сегодня идет свободное скачивание без начисления Download ]


Статистика раздачи
Нет
 
   
 
Top  
 
 
Особое мнение / Minority report
Год выпуска: 2002
Страна: США
Жанр: Фантастика, боевик, триллер
Продолжительность: 02:25:15
Перевод: Профессиональный (полное дублирование)
Русские субтитры: есть
Режиссер: Стивен Спилберг / Steven Spielberg
В ролях: Том Круз, Колин Фаррелл, Саманта Мортон, Макс фон Сюдов, Кэтрин Моррис, Нил МакДонаф, Спенсер Трит Кларк, Стив Харрис, Питер Стормару, Патрик Килпатрик
Описание: В 2054 году юридическая система США претерпевает значительные изменения: уровень преступности удается свести к нулю — преступников ловят до того, как они успевают совершить преступление. Это становится возможным благодаря технологии «Precrime» — способности трёх мутантов-"прекогов", которые могут видеть ближайшее будущее, используются для установления преступника и жертвы за некоторое время до преступления. Предупреждённые полицейские арестовывают преступника ещё до того, как он совершил преступление (но которое обязательно совершил бы, не вмешайся полиция). Несостоявшиеся убийцы сажаются в анабиозные капсулы и до конца своих дней смотрят запись видения их преступления. Система «Precrime» работает безошибочно, но в тот самый момент, когда уже должны состояться выборы, которые сделают «Precrime» повсеместно принятой юридической системой на территории США, лучший полицейский отдела по предотвращению преступлений Джон Андертон получает из информационного центра заключение, согласно которому через 35 часов он убьёт человека, которого никогда в жизни не видел.
Термин «особое мнение» относится к процедуре предсказания будущего. Как узнает Джон Андертон по мере развития сюжета, трое прекогов не всегда видят идентичное будущее. Таким образом, вариант, который видят двое прекогов из трёх, называется «мнением большинства», а тот, который видит третий преког — «особым мнением». Заключение делается на основании «мнения большинства», хотя может случиться так, что события на самом деле станут разворачиваться по сценарию «особого мнения». Также, Джону предстоит разгадать извечный вопрос: может ли человек изменить свою судьбу? И если да, то будет ли это концом «Precrime»? Качество: HDRip-AVC(Исх. BD1080)
Формат: MKV
Видео кодек: H.264
Аудио кодек: AC3
Видео: 1024x432 , 23,976 кадр/сек, 1339 Кбит/сек
Аудио: AC3 384 kbps 48000 Hz 6 ch RUS
Аудио: AC3 384 kbps 48000 Hz 6 ch ENG
Субтитры:русские

FAQ по просмотру MKV/h.264/AAC


-

MediaInfo

General
Complete name : J:\Osoboe mNenie.chopper887.mkv
Format : Matroska
File size : 2.18 GiB
Duration : 2h 25mn
Overall bit rate : 2 150 Kbps
Encoded date : UTC 2010-04-12 16:21:27
Writing application : mkvmerge v3.0.0 ('Hang up your Hang-Ups') built on Dec 12 2009 15:20:35
Writing library : libebml v0.7.9 + libmatroska v0.8.1
Video
ID : 1
Format : AVC
Format/Info : Advanced Video Codec
Format profile : [email protected]
Format settings, CABAC : Yes
Format settings, ReFrames : 9 frames
Muxing mode : Container [email protected]
Codec ID : V_MPEG4/ISO/AVC
Duration : 2h 25mn
Bit rate : 1 339 Kbps
Nominal bit rate : 1 382 Kbps
Width : 1 024 pixels
Height : 432 pixels
Display aspect ratio : 2.35:1
Frame rate : 23.976 fps
Resolution : 8 bits
Colorimetry : 4:2:0
Scan type : Progressive
Bits/(Pixel*Frame) : 0.126
Stream size : 1.36 GiB (62%)
Writing library : x264 core 92 r1510 33d382a
Encoding settings : cabac=1 / ref=9 / deblock=1:-1:0 / analyse=0x3:0x113 / me=umh / subme=9 / psy=1 / psy_rd=1.00:0.10 / mixed_ref=1 / me_range=32 / chroma_me=1 / trellis=1 / 8x8dct=1 / cqm=0 / deadzone=21,11 / fast_pskip=0 / chroma_qp_offset=-3 / threads=3 / sliced_threads=0 / nr=0 / decimate=1 / interlaced=0 / constrained_intra=0 / bframes=9 / b_pyramid=2 / b_adapt=2 / b_bias=0 / direct=1 / wpredb=1 / wpredp=0 / keyint=250 / keyint_min=25 / scenecut=40 / intra_refresh=0 / rc_lookahead=90 / rc=2pass / mbtree=1 / bitrate=1382 / ratetol=1.0 / qcomp=0.70 / qpmin=10 / qpmax=51 / qpstep=4 / cplxblur=20.0 / qblur=0.5 / ip_ratio=1.40 / aq=1:0.90
Language : English
Audio #1
ID : 2
Format : AC-3
Format/Info : Audio Coding 3
Codec ID : A_AC3
Duration : 2h 25mn
Bit rate mode : Constant
Bit rate : 384 Kbps
Channel(s) : 6 channels
Channel positions : Front: L C R, Surround: L R, LFE
Sampling rate : 48.0 KHz
Video delay : 3s 550ms
Stream size : 399 MiB (18%)
Audio #2
ID : 3
Format : AC-3
Format/Info : Audio Coding 3
Codec ID : A_AC3
Duration : 2h 25mn
Bit rate mode : Constant
Bit rate : 384 Kbps
Channel(s) : 6 channels
Channel positions : Front: L C R, Surround: L R, LFE
Sampling rate : 48.0 KHz
Stream size : 399 MiB (18%)
Text
ID : 4
Format : UTF-8
Codec ID : S_TEXT/UTF8
Codec ID/Info : UTF-8 Plain Text

[Цитировать]



Показать сообщения:    

Текущее время: 05-Дек 17:35

Часовой пояс: UTC + 3


Вы не можете начинать темы
Вы не можете отвечать на сообщения
Вы не можете редактировать свои сообщения
Вы не можете удалять свои сообщения
Вы не можете голосовать в опросах
Вы не можете прикреплять файлы к сообщениям
Вы не можете скачивать файлы

!ВНИМАНИЕ!
Сайт не предоставляет электронные версии произведений, а занимается лишь коллекционированием и каталогизацией ссылок, присылаемых и публикуемых на форуме нашими читателями. Если вы являетесь правообладателем какого-либо представленного материала и не желаете, чтобы ссылка на него находилась в нашем каталоге, свяжитесь с нами, и мы незамедлительно удалим ее. Файлы для обмена на трекере предоставлены пользователями сайта, и администрация не несет ответственности за их содержание. Просьба не заливать файлы, защищенные авторскими правами, а также файлы нелегального содержания!