[ Сегодня идет свободное скачивание без начисления Download ]


Статистика раздачи
Нет
 
   
 
Top  
 
 
Адская кошка / My Cat From Hell-
Год выпуска: 2011-2012
Страна: США
Жанр: Научно-познавательный
Продолжительность: ~ 00:43:00
Перевод: Профессиональный (одноголосый закадровый) Animal Planet HD
Субтитры: Нет-Режиссер: Discovery Communications,LLC
Производство: -- -Семпл: Скачать
Рейтинг: http://www.imdb.com/title/tt1933073/-Сюжет фильма:
В передаче специалист по поведению животных Джексон Гэлакси помогает хозяевам решить проблемы поведения у их кошек. Ведущий больше внимания уделяет работе именно с хозяевами, объясняет им как им себя вести с кошкой, как обустроить дом, чтобы кот чувствовал себя комфортнее, поскольку, как выясняется, многие проблемы поведения связаны с тем, что кошке просто неуютно в доме.-Формат: DVB-S2 Remux 1080i
Видео кодек: AVC
Аудио кодеk: AC3
Видео: 1920x1080 (16:9), 25 fps, AVC, ~9300 Кбит/сек
Аудио: Russian: AC3 5.1 (48 kHz / 384 kbps / 16 bit) (Одноголосый закадровый)
English: AC3 5.1 (48 kHz / 384 kbps / 16 bit)
-

Описание эпизодов:

2 Сезон:

Эпизод 5 - Cat Fight! ("Кошачья драка!")

Описание:
Обезумевшая кошка Пенни Лейн ненавидит соседку Лоры Иззи и постоянно нападает на нее. Иззи запугана до того, что боится выйти из комнаты. Удастся ли Джексону наладить их отношения?

MediaInfo

Общее
Идентификатор                            : 1 (0x1)
Полное имя                               : My Cat From Hell [HDTV.1080i]\My Cat From Hell - 02x05 [HDTV.1080i_RUS-ENG].ts
Формат                                   : MPEG-TS
Размер файла                             : 3,24 Гбайт
Продолжительность                        : 43 м.
Режим общего битрейта                    : Переменный
Общий поток                              : 10,6 Мбит/сек
Видео
Идентификатор                            : 324 (0x144)
Идентификатор меню                       : 1 (0x1)
Формат                                   : AVC
Формат/Информация                        : Advanced Video Codec
Профиль формата                          : [email protected]
Параметр CABAC формата                   : Да
Параметр ReFrames формата                : 3 кадра
Идентификатор кодека                     : 27
Продолжительность                        : 43 м.
Битрейт                                  : 9307 Кбит/сек
Ширина                                   : 1920 пикселей
Высота                                   : 1080 пикселей
Соотношение сторон                       : 16:9
Частота кадров                           : 25,000 кадров/сек
Стандарт вещания                         : Component
Цветовое пространство                    : YUV
Субдискретизация насыщенности            : 4:2:0
Битовая глубина                          : 8 бит
Тип развёртки                            : Чересстрочная
Порядок развёртки                        : Верхнее поле первое
Бит/(Пиксели*Кадры)                      : 0.180
Размер потока                            : 2,84 Гбайт (88%)
Основные цвета                           : BT.709
Характеристики трансфера                 : BT.709
Коэффициенты матрицы                     : BT.709
Аудио #1
Идентификатор                            : 404 (0x194)
Идентификатор меню                       : 1 (0x1)
Формат                                   : AC-3
Формат/Информация                        : Audio Coding 3
Расширение режима                        : CM (complete main)
Параметр Endianness формата              : Big
Идентификатор кодека                     : 6
Продолжительность                        : 43 м.
Вид битрейта                             : Постоянный
Битрейт                                  : 384 Кбит/сек
Каналы                                   : 6 каналов
Расположение каналов                     : Front: L C R, Side: L R, LFE
Частота                                  : 48,0 КГц
Битовая глубина                          : 16 бит
Метод сжатия                             : С потерями
Задержка видео                           : -40 мс.
Размер потока                            : 120 Мбайт (4%)
Язык                                     : Russian
Аудио #2
Идентификатор                            : 414 (0x19E)
Идентификатор меню                       : 1 (0x1)
Формат                                   : AC-3
Формат/Информация                        : Audio Coding 3
Расширение режима                        : CM (complete main)
Параметр Endianness формата              : Big
Идентификатор кодека                     : 6
Продолжительность                        : 43 м.
Вид битрейта                             : Постоянный
Битрейт                                  : 384 Кбит/сек
Каналы                                   : 6 каналов
Расположение каналов                     : Front: L C R, Side: L R, LFE
Частота                                  : 48,0 КГц
Битовая глубина                          : 16 бит
Метод сжатия                             : С потерями
Задержка видео                           : -40 мс.
Размер потока                            : 120 Мбайт (4%)
Язык                                     : English

Эпизод 6 - Spitting Mad ("Безумная рвота")

Описание:
От злости Кошка Дороти и Тревиса нападает на хозяев и вызывает приступы рвоты. А вдруг следующей жертвой станет их сын? Для решения проблемы Джексону понадобится весь его опыт.

MediaInfo

Общее
Идентификатор                            : 1 (0x1)
Полное имя                               : My Cat From Hell [HDTV.1080i]\My Cat From Hell - 02x06 [HDTV.1080i_RUS-ENG].ts
Формат                                   : MPEG-TS
Размер файла                             : 2,78 Гбайт
Продолжительность                        : 43 м.
Режим общего битрейта                    : Переменный
Общий поток                              : 9085 Кбит/сек
Видео
Идентификатор                            : 324 (0x144)
Идентификатор меню                       : 1 (0x1)
Формат                                   : AVC
Формат/Информация                        : Advanced Video Codec
Профиль формата                          : [email protected]
Параметр CABAC формата                   : Да
Параметр ReFrames формата                : 3 кадра
Идентификатор кодека                     : 27
Продолжительность                        : 43 м.
Битрейт                                  : 7860 Кбит/сек
Ширина                                   : 1920 пикселей
Высота                                   : 1080 пикселей
Соотношение сторон                       : 16:9
Частота кадров                           : 25,000 кадров/сек
Стандарт вещания                         : Component
Цветовое пространство                    : YUV
Субдискретизация насыщенности            : 4:2:0
Битовая глубина                          : 8 бит
Тип развёртки                            : Чересстрочная
Порядок развёртки                        : Верхнее поле первое
Бит/(Пиксели*Кадры)                      : 0.152
Размер потока                            : 2,41 Гбайт (87%)
Основные цвета                           : BT.709
Характеристики трансфера                 : BT.709
Коэффициенты матрицы                     : BT.709
Аудио #1
Идентификатор                            : 404 (0x194)
Идентификатор меню                       : 1 (0x1)
Формат                                   : AC-3
Формат/Информация                        : Audio Coding 3
Расширение режима                        : CM (complete main)
Параметр Endianness формата              : Big
Идентификатор кодека                     : 6
Продолжительность                        : 43 м.
Вид битрейта                             : Постоянный
Битрейт                                  : 384 Кбит/сек
Каналы                                   : 6 каналов
Расположение каналов                     : Front: L C R, Side: L R, LFE
Частота                                  : 48,0 КГц
Битовая глубина                          : 16 бит
Метод сжатия                             : С потерями
Размер потока                            : 121 Мбайт (4%)
Язык                                     : Russian
Аудио #2
Идентификатор                            : 414 (0x19E)
Идентификатор меню                       : 1 (0x1)
Формат                                   : AC-3
Формат/Информация                        : Audio Coding 3
Расширение режима                        : CM (complete main)
Параметр Endianness формата              : Big
Идентификатор кодека                     : 6
Продолжительность                        : 43 м.
Вид битрейта                             : Постоянный
Битрейт                                  : 384 Кбит/сек
Каналы                                   : 6 каналов
Расположение каналов                     : Front: L C R, Side: L R, LFE
Частота                                  : 48,0 КГц
Битовая глубина                          : 16 бит
Метод сжатия                             : С потерями
Размер потока                            : 121 Мбайт (4%)
Язык                                     : English
-3 Сезон:

Эпизод 1 - Cat Fight! ("Кошачья драка!")

Описание:
Джексон в Нью-Йорке. Там кот по кличке Муфаса атакует хозяйку, но не хозяина. А Олив каждый раз набрасывается на другую кошку.

MediaInfo

Общее
Идентификатор                            : 1 (0x1)
Полное имя                               : My Cat From Hell [HDTV.1080i]\My Cat From Hell - 03x01 [HDTV.1080i_RUS-ENG].ts
Формат                                   : MPEG-TS
Размер файла                             : 2,89 Гбайт
Продолжительность                        : 43 м.
Режим общего битрейта                    : Переменный
Общий поток                              : 9394 Кбит/сек
Видео
Идентификатор                            : 324 (0x144)
Идентификатор меню                       : 1 (0x1)
Формат                                   : AVC
Формат/Информация                        : Advanced Video Codec
Профиль формата                          : [email protected]
Параметр CABAC формата                   : Да
Параметр ReFrames формата                : 3 кадра
Идентификатор кодека                     : 27
Продолжительность                        : 43 м.
Битрейт                                  : 8154 Кбит/сек
Ширина                                   : 1920 пикселей
Высота                                   : 1080 пикселей
Соотношение сторон                       : 16:9
Частота кадров                           : 25,000 кадров/сек
Стандарт вещания                         : Component
Цветовое пространство                    : YUV
Субдискретизация насыщенности            : 4:2:0
Битовая глубина                          : 8 бит
Тип развёртки                            : Чересстрочная
Порядок развёртки                        : Верхнее поле первое
Бит/(Пиксели*Кадры)                      : 0.157
Размер потока                            : 2,50 Гбайт (87%)
Основные цвета                           : BT.709
Характеристики трансфера                 : BT.709
Коэффициенты матрицы                     : BT.709
Аудио #1
Идентификатор                            : 404 (0x194)
Идентификатор меню                       : 1 (0x1)
Формат                                   : AC-3
Формат/Информация                        : Audio Coding 3
Расширение режима                        : CM (complete main)
Параметр Endianness формата              : Big
Идентификатор кодека                     : 6
Продолжительность                        : 43 м.
Вид битрейта                             : Постоянный
Битрейт                                  : 384 Кбит/сек
Каналы                                   : 6 каналов
Расположение каналов                     : Front: L C R, Side: L R, LFE
Частота                                  : 48,0 КГц
Битовая глубина                          : 16 бит
Метод сжатия                             : С потерями
Размер потока                            : 121 Мбайт (4%)
Язык                                     : Russian
Аудио #2
Идентификатор                            : 414 (0x19E)
Идентификатор меню                       : 1 (0x1)
Формат                                   : AC-3
Формат/Информация                        : Audio Coding 3
Расширение режима                        : CM (complete main)
Параметр Endianness формата              : Big
Идентификатор кодека                     : 6
Продолжительность                        : 43 м.
Вид битрейта                             : Постоянный
Битрейт                                  : 384 Кбит/сек
Каналы                                   : 6 каналов
Расположение каналов                     : Front: L C R, Side: L R, LFE
Частота                                  : 48,0 КГц
Битовая глубина                          : 16 бит
Метод сжатия                             : С потерями
Размер потока                            : 121 Мбайт (4%)
Язык                                     : English

Эпизод 2 - My Cat or My Family ("Моя кошка или моя семья.")

Описание:
Кошка Зена порой ведет себя безумно и пугает маленького мальчика.

MediaInfo

Общее
Идентификатор                            : 1 (0x1)
Полное имя                               : My Cat From Hell [HDTV.1080i]\My Cat From Hell - 03x02 [HDTV.1080i_RUS-ENG].ts
Формат                                   : MPEG-TS
Размер файла                             : 2,94 Гбайт
Продолжительность                        : 43 м.
Режим общего битрейта                    : Переменный
Общий поток                              : 9638 Кбит/сек
Видео
Идентификатор                            : 324 (0x144)
Идентификатор меню                       : 1 (0x1)
Формат                                   : AVC
Формат/Информация                        : Advanced Video Codec
Профиль формата                          : [email protected]
Параметр CABAC формата                   : Да
Параметр ReFrames формата                : 3 кадра
Идентификатор кодека                     : 27
Продолжительность                        : 43 м.
Битрейт                                  : 8386 Кбит/сек
Ширина                                   : 1920 пикселей
Высота                                   : 1080 пикселей
Соотношение сторон                       : 16:9
Частота кадров                           : 25,000 кадров/сек
Стандарт вещания                         : Component
Цветовое пространство                    : YUV
Субдискретизация насыщенности            : 4:2:0
Битовая глубина                          : 8 бит
Тип развёртки                            : Чересстрочная
Порядок развёртки                        : Верхнее поле первое
Бит/(Пиксели*Кадры)                      : 0.162
Размер потока                            : 2,56 Гбайт (87%)
Основные цвета                           : BT.709
Характеристики трансфера                 : BT.709
Коэффициенты матрицы                     : BT.709
Аудио #1
Идентификатор                            : 404 (0x194)
Идентификатор меню                       : 1 (0x1)
Формат                                   : AC-3
Формат/Информация                        : Audio Coding 3
Расширение режима                        : CM (complete main)
Параметр Endianness формата              : Big
Идентификатор кодека                     : 6
Продолжительность                        : 43 м.
Вид битрейта                             : Постоянный
Битрейт                                  : 384 Кбит/сек
Каналы                                   : 6 каналов
Расположение каналов                     : Front: L C R, Side: L R, LFE
Частота                                  : 48,0 КГц
Битовая глубина                          : 16 бит
Метод сжатия                             : С потерями
Размер потока                            : 120 Мбайт (4%)
Язык                                     : Russian
Аудио #2
Идентификатор                            : 414 (0x19E)
Идентификатор меню                       : 1 (0x1)
Формат                                   : AC-3
Формат/Информация                        : Audio Coding 3
Расширение режима                        : CM (complete main)
Параметр Endianness формата              : Big
Идентификатор кодека                     : 6
Продолжительность                        : 43 м.
Вид битрейта                             : Постоянный
Битрейт                                  : 384 Кбит/сек
Каналы                                   : 6 каналов
Расположение каналов                     : Front: L C R, Side: L R, LFE
Частота                                  : 48,0 КГц
Битовая глубина                          : 16 бит
Метод сжатия                             : С потерями
Размер потока                            : 120 Мбайт (4%)
Язык                                     : English

Эпизод 3 - Kitty Dearest ("Любимый котенок.")

Описание:
Женщина вместе с другом ухаживает за противной воющей кошкой. Супружеская пара хотела бы завести детей, но опасается агрессивного поведения своей кошки.

MediaInfo

Общее
Идентификатор                            : 1 (0x1)
Полное имя                               : My Cat From Hell [HDTV.1080i]\My Cat From Hell - 03x03 [HDTV.1080i_RUS-ENG].ts
Формат                                   : MPEG-TS
Размер файла                             : 3,02 Гбайт
Продолжительность                        : 43 м.
Режим общего битрейта                    : Переменный
Общий поток                              : 9890 Кбит/сек
Видео
Идентификатор                            : 324 (0x144)
Идентификатор меню                       : 1 (0x1)
Формат                                   : AVC
Формат/Информация                        : Advanced Video Codec
Профиль формата                          : [email protected]
Параметр CABAC формата                   : Да
Параметр ReFrames формата                : 3 кадра
Идентификатор кодека                     : 27
Продолжительность                        : 43 м.
Битрейт                                  : 8626 Кбит/сек
Ширина                                   : 1920 пикселей
Высота                                   : 1080 пикселей
Соотношение сторон                       : 16:9
Частота кадров                           : 25,000 кадров/сек
Стандарт вещания                         : Component
Цветовое пространство                    : YUV
Субдискретизация насыщенности            : 4:2:0
Битовая глубина                          : 8 бит
Тип развёртки                            : Чересстрочная
Порядок развёртки                        : Верхнее поле первое
Бит/(Пиксели*Кадры)                      : 0.166
Размер потока                            : 2,64 Гбайт (87%)
Основные цвета                           : BT.709
Характеристики трансфера                 : BT.709
Коэффициенты матрицы                     : BT.709
Аудио #1
Идентификатор                            : 404 (0x194)
Идентификатор меню                       : 1 (0x1)
Формат                                   : AC-3
Формат/Информация                        : Audio Coding 3
Расширение режима                        : CM (complete main)
Параметр Endianness формата              : Big
Идентификатор кодека                     : 6
Продолжительность                        : 43 м.
Вид битрейта                             : Постоянный
Битрейт                                  : 384 Кбит/сек
Каналы                                   : 6 каналов
Расположение каналов                     : Front: L C R, Side: L R, LFE
Частота                                  : 48,0 КГц
Битовая глубина                          : 16 бит
Метод сжатия                             : С потерями
Размер потока                            : 120 Мбайт (4%)
Язык                                     : Russian
Аудио #2
Идентификатор                            : 414 (0x19E)
Идентификатор меню                       : 1 (0x1)
Формат                                   : AC-3
Формат/Информация                        : Audio Coding 3
Расширение режима                        : CM (complete main)
Параметр Endianness формата              : Big
Идентификатор кодека                     : 6
Продолжительность                        : 43 м.
Вид битрейта                             : Постоянный
Битрейт                                  : 384 Кбит/сек
Каналы                                   : 6 каналов
Расположение каналов                     : Front: L C R, Side: L R, LFE
Частота                                  : 48,0 КГц
Битовая глубина                          : 16 бит
Метод сжатия                             : С потерями
Размер потока                            : 120 Мбайт (4%)
Язык                                     : English

Эпизод 4 - Kitty Jail ("Кошачья тюрьма")

Описание:
Хозяин непослушной кошки отправляет ее в "кошачью тюрьму". Другая докучливая кошка оставляет за собой экскременты и изодранную мебель. Удастся ли Джексону Гэлекси им помочь?

MediaInfo

Общее
Идентификатор                            : 1 (0x1)
Полное имя                               : My Cat From Hell [HDTV.1080i]\My Cat From Hell - 03x04 [HDTV.1080i_RUS-ENG].ts
Формат                                   : MPEG-TS
Размер файла                             : 2,61 Гбайт
Продолжительность                        : 43 м.
Режим общего битрейта                    : Переменный
Общий поток                              : 8583 Кбит/сек
Максимальный общий битрейт               : 35,5 Мбит/сек
Видео
Идентификатор                            : 4113 (0x1011)
Идентификатор меню                       : 1 (0x1)
Формат                                   : AVC
Формат/Информация                        : Advanced Video Codec
Профиль формата                          : [email protected]
Параметр CABAC формата                   : Да
Параметр ReFrames формата                : 3 кадра
Идентификатор кодека                     : 27
Продолжительность                        : 43 м.
Вид битрейта                             : Переменный
Битрейт                                  : 7383 Кбит/сек
Максимальный битрейт                     : 40,0 Мбит/сек
Ширина                                   : 1920 пикселей
Высота                                   : 1080 пикселей
Соотношение сторон                       : 16:9
Частота кадров                           : 25,000 кадров/сек
Стандарт вещания                         : Component
Цветовое пространство                    : YUV
Субдискретизация насыщенности            : 4:2:0
Битовая глубина                          : 8 бит
Тип развёртки                            : Чересстрочная
Порядок развёртки                        : Верхнее поле первое
Бит/(Пиксели*Кадры)                      : 0.142
Размер потока                            : 2,25 Гбайт (86%)
Основные цвета                           : BT.709
Характеристики трансфера                 : BT.709
Коэффициенты матрицы                     : BT.709
Аудио #1
Идентификатор                            : 4352 (0x1100)
Идентификатор меню                       : 1 (0x1)
Формат                                   : AC-3
Формат/Информация                        : Audio Coding 3
Расширение режима                        : CM (complete main)
Параметр Endianness формата              : Big
Идентификатор кодека                     : 129
Продолжительность                        : 43 м.
Вид битрейта                             : Постоянный
Битрейт                                  : 384 Кбит/сек
Каналы                                   : 6 каналов
Расположение каналов                     : Front: L C R, Side: L R, LFE
Частота                                  : 48,0 КГц
Битовая глубина                          : 16 бит
Метод сжатия                             : С потерями
Размер потока                            : 120 Мбайт (4%)
Язык                                     : Russian
Аудио #2
Идентификатор                            : 4353 (0x1101)
Идентификатор меню                       : 1 (0x1)
Формат                                   : AC-3
Формат/Информация                        : Audio Coding 3
Расширение режима                        : CM (complete main)
Параметр Endianness формата              : Big
Идентификатор кодека                     : 129
Продолжительность                        : 43 м.
Вид битрейта                             : Постоянный
Битрейт                                  : 384 Кбит/сек
Каналы                                   : 6 каналов
Расположение каналов                     : Front: L C R, Side: L R, LFE
Частота                                  : 48,0 КГц
Битовая глубина                          : 16 бит
Метод сжатия                             : С потерями
Размер потока                            : 120 Мбайт (4%)
Язык                                     : English

Эпизод 5 - Roscoe The Menace ("Неуправляемый Роско")

Описание:
Кошка-эгоистка мешает осуществлению матримониальных планов пары. А другой герой программы попытался съехаться со своей девушкой, но ее кот не признает нового хозяина в доме.

MediaInfo

Общее
Идентификатор                            : 1 (0x1)
Полное имя                               : My Cat From Hell [HDTV.1080i]\My Cat From Hell - 03x05 [HDTV.1080i_RUS-ENG].ts
Формат                                   : MPEG-TS
Размер файла                             : 2,91 Гбайт
Продолжительность                        : 43 м.
Режим общего битрейта                    : Переменный
Общий поток                              : 9553 Кбит/сек
Видео
Идентификатор                            : 324 (0x144)
Идентификатор меню                       : 1 (0x1)
Формат                                   : AVC
Формат/Информация                        : Advanced Video Codec
Профиль формата                          : [email protected]
Параметр CABAC формата                   : Да
Параметр ReFrames формата                : 3 кадра
Идентификатор кодека                     : 27
Продолжительность                        : 43 м.
Битрейт                                  : 8305 Кбит/сек
Ширина                                   : 1920 пикселей
Высота                                   : 1080 пикселей
Соотношение сторон                       : 16:9
Частота кадров                           : 25,000 кадров/сек
Стандарт вещания                         : Component
Цветовое пространство                    : YUV
Субдискретизация насыщенности            : 4:2:0
Битовая глубина                          : 8 бит
Тип развёртки                            : Чересстрочная
Порядок развёртки                        : Верхнее поле первое
Бит/(Пиксели*Кадры)                      : 0.160
Размер потока                            : 2,53 Гбайт (87%)
Основные цвета                           : BT.709
Характеристики трансфера                 : BT.709
Коэффициенты матрицы                     : BT.709
Аудио #1
Идентификатор                            : 404 (0x194)
Идентификатор меню                       : 1 (0x1)
Формат                                   : AC-3
Формат/Информация                        : Audio Coding 3
Расширение режима                        : CM (complete main)
Параметр Endianness формата              : Big
Идентификатор кодека                     : 6
Продолжительность                        : 43 м.
Вид битрейта                             : Постоянный
Битрейт                                  : 384 Кбит/сек
Каналы                                   : 6 каналов
Расположение каналов                     : Front: L C R, Side: L R, LFE
Частота                                  : 48,0 КГц
Битовая глубина                          : 16 бит
Метод сжатия                             : С потерями
Размер потока                            : 120 Мбайт (4%)
Язык                                     : Russian
Аудио #2
Идентификатор                            : 414 (0x19E)
Идентификатор меню                       : 1 (0x1)
Формат                                   : AC-3
Формат/Информация                        : Audio Coding 3
Расширение режима                        : CM (complete main)
Параметр Endianness формата              : Big
Идентификатор кодека                     : 6
Продолжительность                        : 43 м.
Вид битрейта                             : Постоянный
Битрейт                                  : 384 Кбит/сек
Каналы                                   : 6 каналов
Расположение каналов                     : Front: L C R, Side: L R, LFE
Частота                                  : 48,0 КГц
Битовая глубина                          : 16 бит
Метод сжатия                             : С потерями
Размер потока                            : 120 Мбайт (4%)
Язык                                     : English

Эпизод 6 - Cat Escape! ("Кошачий побег")

Описание:
Свирепая кошка этой супружеской пары не пускает родственников в дом. А русская голубая кошка объявила войну другу своей хозяйки.

MediaInfo

Общее
Идентификатор                            : 1 (0x1)
Полное имя                               : My Cat From Hell [HDTV.1080i]\My Cat From Hell - 03x06 [HDTV.1080i_RUS-ENG].ts
Формат                                   : MPEG-TS
Размер файла                             : 3,33 Гбайт
Продолжительность                        : 43 м.
Режим общего битрейта                    : Переменный
Общий поток                              : 10,9 Мбит/сек
Видео
Идентификатор                            : 324 (0x144)
Идентификатор меню                       : 1 (0x1)
Формат                                   : AVC
Формат/Информация                        : Advanced Video Codec
Профиль формата                          : [email protected]
Параметр CABAC формата                   : Да
Параметр ReFrames формата                : 3 кадра
Идентификатор кодека                     : 27
Продолжительность                        : 43 м.
Битрейт                                  : 9575 Кбит/сек
Ширина                                   : 1920 пикселей
Высота                                   : 1080 пикселей
Соотношение сторон                       : 16:9
Частота кадров                           : 25,000 кадров/сек
Стандарт вещания                         : Component
Цветовое пространство                    : YUV
Субдискретизация насыщенности            : 4:2:0
Битовая глубина                          : 8 бит
Тип развёртки                            : Чересстрочная
Порядок развёртки                        : Верхнее поле первое
Бит/(Пиксели*Кадры)                      : 0.185
Размер потока                            : 2,93 Гбайт (88%)
Основные цвета                           : BT.709
Характеристики трансфера                 : BT.709
Коэффициенты матрицы                     : BT.709
Аудио #1
Идентификатор                            : 404 (0x194)
Идентификатор меню                       : 1 (0x1)
Формат                                   : AC-3
Формат/Информация                        : Audio Coding 3
Расширение режима                        : CM (complete main)
Параметр Endianness формата              : Big
Идентификатор кодека                     : 6
Продолжительность                        : 43 м.
Вид битрейта                             : Постоянный
Битрейт                                  : 384 Кбит/сек
Каналы                                   : 6 каналов
Расположение каналов                     : Front: L C R, Side: L R, LFE
Частота                                  : 48,0 КГц
Битовая глубина                          : 16 бит
Метод сжатия                             : С потерями
Размер потока                            : 120 Мбайт (4%)
Язык                                     : Russian
Аудио #2
Идентификатор                            : 414 (0x19E)
Идентификатор меню                       : 1 (0x1)
Формат                                   : AC-3
Формат/Информация                        : Audio Coding 3
Расширение режима                        : CM (complete main)
Параметр Endianness формата              : Big
Идентификатор кодека                     : 6
Продолжительность                        : 43 м.
Вид битрейта                             : Постоянный
Битрейт                                  : 384 Кбит/сек
Каналы                                   : 6 каналов
Расположение каналов                     : Front: L C R, Side: L R, LFE
Частота                                  : 48,0 КГц
Битовая глубина                          : 16 бит
Метод сжатия                             : С потерями
Размер потока                            : 120 Мбайт (4%)
Язык                                     : English

Эпизод 7 - My Cat Eats Everything! ("Мой кот всеяден!")

Описание:
Кот-обжора Гас не любит здоровой пищи. Женщина, пережившая рак груди, пытается наладить свою личную жизнь. Однако зловредный кот отпугивает всех потенциальных ухажеров.

MediaInfo

Общее
Идентификатор                            : 1 (0x1)
Полное имя                               : My Cat From Hell [HDTV.1080i]\My Cat From Hell - 03x07 [HDTV.1080i_RUS-ENG].ts
Формат                                   : MPEG-TS
Размер файла                             : 3,25 Гбайт
Продолжительность                        : 44 м.
Режим общего битрейта                    : Переменный
Общий поток                              : 10,6 Мбит/сек
Видео
Идентификатор                            : 324 (0x144)
Идентификатор меню                       : 1 (0x1)
Формат                                   : AVC
Формат/Информация                        : Advanced Video Codec
Профиль формата                          : [email protected]
Параметр CABAC формата                   : Да
Параметр ReFrames формата                : 3 кадра
Идентификатор кодека                     : 27
Продолжительность                        : 44 м.
Битрейт                                  : 9273 Кбит/сек
Ширина                                   : 1920 пикселей
Высота                                   : 1080 пикселей
Соотношение сторон                       : 16:9
Частота кадров                           : 25,000 кадров/сек
Стандарт вещания                         : Component
Цветовое пространство                    : YUV
Субдискретизация насыщенности            : 4:2:0
Битовая глубина                          : 8 бит
Тип развёртки                            : Чересстрочная
Порядок развёртки                        : Верхнее поле первое
Бит/(Пиксели*Кадры)                      : 0.179
Размер потока                            : 2,85 Гбайт (88%)
Основные цвета                           : BT.709
Характеристики трансфера                 : BT.709
Коэффициенты матрицы                     : BT.709
Аудио #1
Идентификатор                            : 404 (0x194)
Идентификатор меню                       : 1 (0x1)
Формат                                   : AC-3
Формат/Информация                        : Audio Coding 3
Расширение режима                        : CM (complete main)
Параметр Endianness формата              : Big
Идентификатор кодека                     : 6
Продолжительность                        : 44 м.
Вид битрейта                             : Постоянный
Битрейт                                  : 384 Кбит/сек
Каналы                                   : 6 каналов
Расположение каналов                     : Front: L C R, Side: L R, LFE
Частота                                  : 48,0 КГц
Битовая глубина                          : 16 бит
Метод сжатия                             : С потерями
Размер потока                            : 121 Мбайт (4%)
Язык                                     : Russian
Аудио #2
Идентификатор                            : 414 (0x19E)
Идентификатор меню                       : 1 (0x1)
Формат                                   : AC-3
Формат/Информация                        : Audio Coding 3
Расширение режима                        : CM (complete main)
Параметр Endianness формата              : Big
Идентификатор кодека                     : 6
Продолжительность                        : 44 м.
Вид битрейта                             : Постоянный
Битрейт                                  : 384 Кбит/сек
Каналы                                   : 6 каналов
Расположение каналов                     : Front: L C R, Side: L R, LFE
Частота                                  : 48,0 КГц
Битовая глубина                          : 16 бит
Метод сжатия                             : С потерями
Размер потока                            : 121 Мбайт (4%)
Язык                                     : English

Эпизод 8 - My Cat Is A Bully! ("Моя кошка - задира")

Описание:
Свирепая кошка, того и гляди, рассорит супругов. А хозяева, взявшие кошку из приюта, похоже, сделали неудачный выбор. Удастся ли Гэлекси помочь им?

MediaInfo

Общее
Идентификатор                            : 1 (0x1)
Полное имя                               : My Cat From Hell [HDTV.1080i]\My Cat From Hell - 03x08 [HDTV.1080i_RUS-ENG].ts
Формат                                   : MPEG-TS
Размер файла                             : 3,44 Гбайт
Продолжительность                        : 43 м.
Режим общего битрейта                    : Переменный
Общий поток                              : 11,3 Мбит/сек
Видео
Идентификатор                            : 324 (0x144)
Идентификатор меню                       : 1 (0x1)
Формат                                   : AVC
Формат/Информация                        : Advanced Video Codec
Профиль формата                          : [email protected]
Параметр CABAC формата                   : Да
Параметр ReFrames формата                : 3 кадра
Идентификатор кодека                     : 27
Продолжительность                        : 43 м.
Битрейт                                  : 9937 Кбит/сек
Ширина                                   : 1920 пикселей
Высота                                   : 1080 пикселей
Соотношение сторон                       : 16:9
Частота кадров                           : 25,000 кадров/сек
Стандарт вещания                         : Component
Цветовое пространство                    : YUV
Субдискретизация насыщенности            : 4:2:0
Битовая глубина                          : 8 бит
Тип развёртки                            : Чересстрочная
Порядок развёртки                        : Верхнее поле первое
Бит/(Пиксели*Кадры)                      : 0.192
Размер потока                            : 3,03 Гбайт (88%)
Основные цвета                           : BT.709
Характеристики трансфера                 : BT.709
Коэффициенты матрицы                     : BT.709
Аудио #1
Идентификатор                            : 404 (0x194)
Идентификатор меню                       : 1 (0x1)
Формат                                   : AC-3
Формат/Информация                        : Audio Coding 3
Расширение режима                        : CM (complete main)
Параметр Endianness формата              : Big
Идентификатор кодека                     : 6
Продолжительность                        : 43 м.
Вид битрейта                             : Постоянный
Битрейт                                  : 384 Кбит/сек
Каналы                                   : 6 каналов
Расположение каналов                     : Front: L C R, Side: L R, LFE
Частота                                  : 48,0 КГц
Битовая глубина                          : 16 бит
Метод сжатия                             : С потерями
Задержка видео                           : -40 мс.
Размер потока                            : 120 Мбайт (3%)
Язык                                     : Russian
Аудио #2
Идентификатор                            : 414 (0x19E)
Идентификатор меню                       : 1 (0x1)
Формат                                   : AC-3
Формат/Информация                        : Audio Coding 3
Расширение режима                        : CM (complete main)
Параметр Endianness формата              : Big
Идентификатор кодека                     : 6
Продолжительность                        : 43 м.
Вид битрейта                             : Постоянный
Битрейт                                  : 384 Кбит/сек
Каналы                                   : 6 каналов
Расположение каналов                     : Front: L C R, Side: L R, LFE
Частота                                  : 48,0 КГц
Битовая глубина                          : 16 бит
Метод сжатия                             : С потерями
Задержка видео                           : -40 мс.
Размер потока                            : 120 Мбайт (3%)
Язык                                     : English

Эпизод 9 - Big Boi Is Ruining Our Social Life! ("Верзила мешает нашей светской жизни")

Описание:
Будущая мать безуспешно пытается согнать кошку со своего рабочего места. А этот кот-задира нарушает гармонию любовных отношений между своими хозяевами. Сможет ли Джексон помочь им?

MediaInfo

Общее
Идентификатор                            : 1 (0x1)
Полное имя                               : My Cat From Hell [HDTV.1080i]\My Cat From Hell - 03x09 [HDTV.1080i_RUS-ENG].ts
Формат                                   : MPEG-TS
Размер файла                             : 2,94 Гбайт
Продолжительность                        : 43 м.
Режим общего битрейта                    : Переменный
Общий поток                              : 9604 Кбит/сек
Видео
Идентификатор                            : 324 (0x144)
Идентификатор меню                       : 1 (0x1)
Формат                                   : AVC
Формат/Информация                        : Advanced Video Codec
Профиль формата                          : [email protected]
Параметр CABAC формата                   : Да
Параметр ReFrames формата                : 3 кадра
Идентификатор кодека                     : 27
Продолжительность                        : 43 м.
Битрейт                                  : 8353 Кбит/сек
Ширина                                   : 1920 пикселей
Высота                                   : 1080 пикселей
Соотношение сторон                       : 16:9
Частота кадров                           : 25,000 кадров/сек
Стандарт вещания                         : Component
Цветовое пространство                    : YUV
Субдискретизация насыщенности            : 4:2:0
Битовая глубина                          : 8 бит
Тип развёртки                            : Чересстрочная
Порядок развёртки                        : Верхнее поле первое
Бит/(Пиксели*Кадры)                      : 0.161
Размер потока                            : 2,56 Гбайт (87%)
Основные цвета                           : BT.709
Характеристики трансфера                 : BT.709
Коэффициенты матрицы                     : BT.709
Аудио #1
Идентификатор                            : 404 (0x194)
Идентификатор меню                       : 1 (0x1)
Формат                                   : AC-3
Формат/Информация                        : Audio Coding 3
Расширение режима                        : CM (complete main)
Параметр Endianness формата              : Big
Идентификатор кодека                     : 6
Продолжительность                        : 43 м.
Вид битрейта                             : Постоянный
Битрейт                                  : 384 Кбит/сек
Каналы                                   : 6 каналов
Расположение каналов                     : Front: L C R, Side: L R, LFE
Частота                                  : 48,0 КГц
Битовая глубина                          : 16 бит
Метод сжатия                             : С потерями
Размер потока                            : 121 Мбайт (4%)
Язык                                     : Russian
Аудио #2
Идентификатор                            : 414 (0x19E)
Идентификатор меню                       : 1 (0x1)
Формат                                   : AC-3
Формат/Информация                        : Audio Coding 3
Расширение режима                        : CM (complete main)
Параметр Endianness формата              : Big
Идентификатор кодека                     : 6
Продолжительность                        : 43 м.
Вид битрейта                             : Постоянный
Битрейт                                  : 384 Кбит/сек
Каналы                                   : 6 каналов
Расположение каналов                     : Front: L C R, Side: L R, LFE
Частота                                  : 48,0 КГц
Битовая глубина                          : 16 бит
Метод сжатия                             : С потерями
Размер потока                            : 121 Мбайт (4%)
Язык                                     : English

Эпизод 10 - Bitten! ("Кусака")

Описание:
Семейная пара не знает, что делать: их коты Кусака и Грызяка все время дерутся. Поможет ли Джексон столь удачно названным котам и их хозяевам достигнуть перемирия?

MediaInfo

Общее
Идентификатор                            : 1 (0x1)
Полное имя                               : My Cat From Hell [HDTV.1080i]\My Cat From Hell - 03x10 [HDTV.1080i_RUS-ENG].ts
Формат                                   : MPEG-TS
Размер файла                             : 3,27 Гбайт
Продолжительность                        : 43 м.
Режим общего битрейта                    : Переменный
Общий поток                              : 10,7 Мбит/сек
Видео
Идентификатор                            : 324 (0x144)
Идентификатор меню                       : 1 (0x1)
Формат                                   : AVC
Формат/Информация                        : Advanced Video Codec
Профиль формата                          : [email protected]
Параметр CABAC формата                   : Да
Параметр ReFrames формата                : 3 кадра
Идентификатор кодека                     : 27
Продолжительность                        : 43 м.
Битрейт                                  : 9366 Кбит/сек
Ширина                                   : 1920 пикселей
Высота                                   : 1080 пикселей
Соотношение сторон                       : 16:9
Частота кадров                           : 25,000 кадров/сек
Стандарт вещания                         : Component
Цветовое пространство                    : YUV
Субдискретизация насыщенности            : 4:2:0
Битовая глубина                          : 8 бит
Тип развёртки                            : Чересстрочная
Порядок развёртки                        : Верхнее поле первое
Бит/(Пиксели*Кадры)                      : 0.181
Размер потока                            : 2,87 Гбайт (88%)
Основные цвета                           : BT.709
Характеристики трансфера                 : BT.709
Коэффициенты матрицы                     : BT.709
Аудио #1
Идентификатор                            : 404 (0x194)
Идентификатор меню                       : 1 (0x1)
Формат                                   : AC-3
Формат/Информация                        : Audio Coding 3
Расширение режима                        : CM (complete main)
Параметр Endianness формата              : Big
Идентификатор кодека                     : 6
Продолжительность                        : 43 м.
Вид битрейта                             : Постоянный
Битрейт                                  : 384 Кбит/сек
Каналы                                   : 6 каналов
Расположение каналов                     : Front: L C R, Side: L R, LFE
Частота                                  : 48,0 КГц
Битовая глубина                          : 16 бит
Метод сжатия                             : С потерями
Размер потока                            : 121 Мбайт (4%)
Язык                                     : Russian
Аудио #2
Идентификатор                            : 414 (0x19E)
Идентификатор меню                       : 1 (0x1)
Формат                                   : AC-3
Формат/Информация                        : Audio Coding 3
Расширение режима                        : CM (complete main)
Параметр Endianness формата              : Big
Идентификатор кодека                     : 6
Продолжительность                        : 43 м.
Вид битрейта                             : Постоянный
Битрейт                                  : 384 Кбит/сек
Каналы                                   : 6 каналов
Расположение каналов                     : Front: L C R, Side: L R, LFE
Частота                                  : 48,0 КГц
Битовая глубина                          : 16 бит
Метод сжатия                             : С потерями
Размер потока                            : 121 Мбайт (4%)
Язык                                     : English
-4 Сезон:

Эпизод 1 - Deaf, Blind and Biting ("Глухая, слепая и кусачая")

Описание:
Кошка из Сан-Франциско практически слепая и глухая, и прибывает в депрессии из-за этого, справится ли Гэлекси с этим, самым сложным в своей практике, делом.

MediaInfo

Общее
Идентификатор                            : 1 (0x1)
Полное имя                               : My Cat From Hell [HDTV.1080i]\My Cat From Hell - 04x01 [HDTV.1080i_RUS-ENG].ts
Формат                                   : MPEG-TS
Размер файла                             : 2,96 Гбайт
Продолжительность                        : 43 м.
Режим общего битрейта                    : Переменный
Общий поток                              : 9674 Кбит/сек
Видео
Идентификатор                            : 324 (0x144)
Идентификатор меню                       : 1 (0x1)
Формат                                   : AVC
Формат/Информация                        : Advanced Video Codec
Профиль формата                          : [email protected]
Параметр CABAC формата                   : Да
Параметр ReFrames формата                : 3 кадра
Идентификатор кодека                     : 27
Продолжительность                        : 43 м.
Битрейт                                  : 8420 Кбит/сек
Ширина                                   : 1920 пикселей
Высота                                   : 1080 пикселей
Соотношение сторон                       : 16:9
Частота кадров                           : 25,000 кадров/сек
Стандарт вещания                         : Component
Цветовое пространство                    : YUV
Субдискретизация насыщенности            : 4:2:0
Битовая глубина                          : 8 бит
Тип развёртки                            : Чересстрочная
Порядок развёртки                        : Верхнее поле первое
Бит/(Пиксели*Кадры)                      : 0.162
Размер потока                            : 2,58 Гбайт (87%)
Основные цвета                           : BT.709
Характеристики трансфера                 : BT.709
Коэффициенты матрицы                     : BT.709
Аудио #1
Идентификатор                            : 404 (0x194)
Идентификатор меню                       : 1 (0x1)
Формат                                   : AC-3
Формат/Информация                        : Audio Coding 3
Расширение режима                        : CM (complete main)
Параметр Endianness формата              : Big
Идентификатор кодека                     : 6
Продолжительность                        : 43 м.
Вид битрейта                             : Постоянный
Битрейт                                  : 384 Кбит/сек
Каналы                                   : 6 каналов
Расположение каналов                     : Front: L C R, Side: L R, LFE
Частота                                  : 48,0 КГц
Битовая глубина                          : 16 бит
Метод сжатия                             : С потерями
Задержка видео                           : -40 мс.
Размер потока                            : 120 Мбайт (4%)
Язык                                     : Russian
Аудио #2
Идентификатор                            : 414 (0x19E)
Идентификатор меню                       : 1 (0x1)
Формат                                   : AC-3
Формат/Информация                        : Audio Coding 3
Расширение режима                        : CM (complete main)
Параметр Endianness формата              : Big
Идентификатор кодека                     : 6
Продолжительность                        : 43 м.
Вид битрейта                             : Постоянный
Битрейт                                  : 384 Кбит/сек
Каналы                                   : 6 каналов
Расположение каналов                     : Front: L C R, Side: L R, LFE
Частота                                  : 48,0 КГц
Битовая глубина                          : 16 бит
Метод сжатия                             : С потерями
Задержка видео                           : -40 мс.
Размер потока                            : 120 Мбайт (4%)
Язык                                     : English

Скриншоты:

Внимание! Раздача ведётся путём добавления новых серий

Внимание! Раздача ведётся путём добавления новых серий телепередачи; при каждом добавлении создаётся новый торрент. Чтобы начать докачку новой серии, пользователям необходимо сделать следующее:
(1) остановить скачивание,
(2) удалить старый торрент у себя из клиента (старые серии удалять не надо),
(3) скачать новый торрент и запустить его у себя в клиенте вместо старого, при этом указать клиенту путь в старую папку куда и должно происходить скачивание новых серий.
Ваш клиент при этом должен произвести хеширование (проверку) старой папки (если не производит сам - помогите ему сделать это), и будет докачивать только те серии которых у вас ещё нет. Старые серии при этом не удаляются, а продолжают раздаваться!
Если вы уже удалили старые серии, то предотвратить повторную закачку старых серий можно, отжав галочку в соответсвующих местах при запуске нового торрента. По возможности, желательно не удалять старые серии как можно дольше чтобы релизёр не столько продолжал раздавать старые серии, а смог сконцентрироваться на новых.
-

[Цитировать]



Показать сообщения:    

Текущее время: 04-Дек 23:27

Часовой пояс: UTC + 3


Вы не можете начинать темы
Вы не можете отвечать на сообщения
Вы не можете редактировать свои сообщения
Вы не можете удалять свои сообщения
Вы не можете голосовать в опросах
Вы не можете прикреплять файлы к сообщениям
Вы не можете скачивать файлы

!ВНИМАНИЕ!
Сайт не предоставляет электронные версии произведений, а занимается лишь коллекционированием и каталогизацией ссылок, присылаемых и публикуемых на форуме нашими читателями. Если вы являетесь правообладателем какого-либо представленного материала и не желаете, чтобы ссылка на него находилась в нашем каталоге, свяжитесь с нами, и мы незамедлительно удалим ее. Файлы для обмена на трекере предоставлены пользователями сайта, и администрация не несет ответственности за их содержание. Просьба не заливать файлы, защищенные авторскими правами, а также файлы нелегального содержания!