[ Сегодня идет свободное скачивание без начисления Download ]


Статистика раздачи
Нет
 
   
 
Top  
 
 
Техасская резня бензопилой 3D / Texas Chainsaw 3D
Страна: США / Lionsgate, Mainline Pictures Inc., Millennium Films, Nu-Image Films
Жанр: Ужасы, триллер, детектив
Год выпуска: 2013
Продолжительность: 01:32:01-Перевод: Одноголосый закадровый Алексей Матвеев
Cубтитры: английские |отключаемые|
Формат субтитров: softsub (SRT)
Оригинальная аудиодорожка: английский
Навигация по главам: Есть-Режиссер: Джон Льюсенхоп / John Luessenhop
В ролях: Александра Даддарио, Дэн Йеджер, Трей Сонгз, Скотт Иствуд, Таня Рэймонд, Шон Сайпос, Керам Малики-Санчес, Джеймс МакДональд, Том Бэрри, Пол Рэй
Описание: Местный шериф согласился организовать для Джеба Сойера, который и скрывался под Кожаным лицом, честный судебный процесс и предоставить ему адвоката. Однако его намерениям мешает мэр, который ведет за собой толпу людей, жаждущих линчевать кровавого маньяка. Когда ситуация начинает выходить из-под контроля, а горожане принимаются ладить петли для убийцы, кто-то бросает в дом Сойера бутылку с зажигательной смесью. Дом сгорает, а вместе с ним в огне гибнут и все, кто в нем находился, включая самого Джеба и его отца. Разумеется, спустя определенное время убийства с помощью бензопилы начинаются снова. Первое предположение шерифа — Джеб Сойер выжил и решил отомстить. Но он ли это на самом деле? И если нет, то кто?- -Качество видео: BDRip-AVC [Texas Chainsaw 2013 1080p BluRay REMUX DTS-HD.MA.7.1-PublicHD]
Формат видео: MKV
Видео: H.264, 1080x450 (2,40:1), 23,976 fps, 2507 Кbps, 0.215 bit/pixel
Аудио#1: 48 kHz, AC3 Dolby Digital, 3/2 (L,C,R,l,r) + LFE ch, ~448.00 kbps avg | RUS
Аудио#2: 48 kHz, AC3 Dolby Digital, 3/2 (L,C,R,l,r) + LFE ch, ~448.00 kbps avg | ENG

MediaInfo

Общее
Уникальный идентификатор : 222229106623413339337151203426167096850 (0xA72FC4E37A7B254BB6F860A207070612)
Полное имя : Tehasskaja.Reznja.Benzopiloj.2013.BDRip.x264.potroks.mkv
Формат : Matroska
Версия формата : Version 4 / Version 2
Размер файла : 2,19 Гбайт
Продолжительность : 1 ч. 31 м.
Общий поток : 3405 Кбит/сек
Название фильма : -=POTROKS=-
Дата кодирования : UTC 2013-05-08 16:46:32
Программа кодирования : mkvmerge v5.9.0 ('On The Loose') built on Dec 15 2012 16:39:58
Библиотека кодирования : libebml v1.3.0 + libmatroska v1.4.0
Видео
Идентификатор : 1
Формат : AVC
Формат/Информация : Advanced Video Codec
Профиль формата : High@L4.1
Параметр CABAC формата : Да
Параметр ReFrames формата : 9 кадров
Идентификатор кодека : V_MPEG4/ISO/AVC
Продолжительность : 1 ч. 31 м.
Битрейт : 2507 Кбит/сек
Ширина : 1080 пикселей
Высота : 450 пикселей
Соотношение сторон : 2,40:1
Режим частоты кадров : Постоянный
Частота кадров : 23,976 кадра/сек
Цветовое пространство : YUV
Субдискретизация насыщенности : 4:2:0
Битовая глубина : 8 бит
Тип развёртки : Прогрессивная
Бит/(Пиксели*Кадры) : 0.215
Размер потока : 1,57 Гбайт (72%)
Заголовок : Texas Chainsaw 3D
Библиотека кодирования : x264 core 125 r2208 d9d2288
Настройки программы : cabac=1 / ref=9 / deblock=1:-2:-1 / analyse=0x3:0x133 / me=umh / subme=11 / psy=1 / psy_rd=1.12:0.04 / mixed_ref=1 / me_range=24 / chroma_me=1 / trellis=2 / 8x8dct=1 / cqm=0 / deadzone=21,11 / fast_pskip=0 / chroma_qp_offset=-3 / threads=9 / lookahead_threads=1 / sliced_threads=0 / nr=0 / decimate=1 / interlaced=0 / bluray_compat=0 / constrained_intra=0 / bframes=10 / b_pyramid=2 / b_adapt=2 / b_bias=0 / direct=3 / weightb=1 / open_gop=0 / weightp=2 / keyint=240 / keyint_min=23 / scenecut=40 / intra_refresh=0 / rc_lookahead=150 / rc=2pass / mbtree=1 / bitrate=2507 / ratetol=1.0 / qcomp=0.70 / qpmin=0 / qpmax=69 / qpstep=4 / cplxblur=20.0 / qblur=0.5 / vbv_maxrate=20000 / vbv_bufsize=25000 / nal_hrd=none / ip_ratio=1.35 / aq=1:0.80
Язык : English
Default : Да
Forced : Нет
Аудио #1
Идентификатор : 2
Формат : AC-3
Формат/Информация : Audio Coding 3
Расширение режима : CM (complete main)
Параметр Endianness формата : Big
Идентификатор кодека : A_AC3
Продолжительность : 1 ч. 31 м.
Вид битрейта : Постоянный
Битрейт : 448 Кбит/сек
Каналы : 6 каналов
Расположение каналов : Front: L C R, Side: L R, LFE
Частота : 48,0 КГц
Битовая глубина : 16 бит
Метод сжатия : С потерями
Размер потока : 295 Мбайт (13%)
Заголовок : Алексей Матвеев
Язык : Russian
Default : Да
Forced : Да
Аудио #2
Идентификатор : 3
Формат : AC-3
Формат/Информация : Audio Coding 3
Расширение режима : CM (complete main)
Параметр Endianness формата : Big
Идентификатор кодека : A_AC3
Продолжительность : 1 ч. 31 м.
Вид битрейта : Постоянный
Битрейт : 448 Кбит/сек
Каналы : 6 каналов
Расположение каналов : Front: L C R, Side: L R, LFE
Частота : 48,0 КГц
Битовая глубина : 16 бит
Метод сжатия : С потерями
Размер потока : 295 Мбайт (13%)
Заголовок : Original | DD 5.1 @ 448 kbps
Язык : English
Default : Нет
Forced : Нет
Текст
Идентификатор : 4
Формат : UTF-8
Идентификатор кодека : S_TEXT/UTF8
Идентификатор кодека/Информация : UTF-8 Plain Text
Язык : English
Default : Нет
Forced : Нет
Меню
00:00:00.000 : en:00:00:00.000
00:05:50.767 : en:00:05:50.767
00:13:10.081 : en:00:13:10.081
00:19:32.296 : en:00:19:32.296
00:26:39.223 : en:00:26:39.223
00:31:56.623 : en:00:31:56.623
00:38:02.197 : en:00:38:02.197
00:43:00.536 : en:00:43:00.536
00:47:00.359 : en:00:47:00.359
00:49:55.201 : en:00:49:55.201
00:52:09.418 : en:00:52:09.418
00:56:26.008 : en:00:56:26.008
00:59:24.644 : en:00:59:24.644
01:06:09.674 : en:01:06:09.674
01:13:03.629 : en:01:13:03.629
01:18:13.939 : en:01:18:13.939

log@x.264

avs [info]: 1080x450p 1:1 @ 2500000/104271 fps (cfr)
x264 [info]: using SAR=1/1
x264 [info]: using cpu capabilities: MMX2 SSE2Fast SSSE3 FastShuffle SSE4.2 AVX XOP FMA4 SSEMisalign LZCNT
x264 [info]: profile High, level 4.1
x264 [info]: frame I:1437 Avg QP:16.52 size: 76885
x264 [info]: frame P:29299 Avg QP:17.85 size: 27071
x264 [info]: frame B:101546 Avg QP:20.95 size: 8124
x264 [info]: consecutive B-frames: 2.3% 2.4% 9.5% 23.2% 22.5% 30.1% 4.6% 2.4% 1.1% 0.7% 1.3%
x264 [info]: mb I I16..4: 11.3% 62.1% 26.5%
x264 [info]: mb P I16..4: 1.2% 8.4% 2.2% P16..4: 31.1% 32.8% 12.8% 3.0% 0.5% skip: 8.0%
x264 [info]: mb B I16..4: 0.2% 1.3% 0.4% B16..8: 33.0% 17.4% 2.9% direct: 5.0% skip:39.9% L0:41.6% L1:44.0% BI:14.4%
x264 [info]: 8x8 transform intra:68.7% inter:58.2%
x264 [info]: direct mvs spatial:97.9% temporal:2.1%
x264 [info]: coded y,uvDC,uvAC intra: 77.6% 85.0% 68.3% inter: 20.1% 22.8% 10.9%
x264 [info]: i16 v,h,dc,p: 41% 15% 6% 38%
x264 [info]: i8 v,h,dc,ddl,ddr,vr,hd,vl,hu: 15% 9% 8% 9% 12% 12% 12% 12% 12%
x264 [info]: i4 v,h,dc,ddl,ddr,vr,hd,vl,hu: 31% 8% 6% 7% 10% 10% 9% 8% 9%
x264 [info]: i8c dc,h,v,p: 39% 25% 21% 16%
x264 [info]: Weighted P-Frames: Y:4.0% UV:1.6%
x264 [info]: ref P L0: 50.0% 10.3% 17.0% 6.9% 5.0% 3.8% 3.1% 1.9% 1.8% 0.3% 0.0%
x264 [info]: ref B L0: 74.1% 11.8% 6.2% 3.0% 2.1% 1.6% 0.9% 0.3%
x264 [info]: ref B L1: 91.5% 8.5%
x264 [info]: kb/s:2506.48
x264 [total]: encoded 132282 frames, 6.38 fps, 2506.48 kb/s

Скриншоты



[Цитировать]



Показать сообщения:    

Текущее время: 10-Дек 23:29

Часовой пояс: UTC + 3


Вы не можете начинать темы
Вы не можете отвечать на сообщения
Вы не можете редактировать свои сообщения
Вы не можете удалять свои сообщения
Вы не можете голосовать в опросах
Вы не можете прикреплять файлы к сообщениям
Вы не можете скачивать файлы

!ВНИМАНИЕ!
Сайт не предоставляет электронные версии произведений, а занимается лишь коллекционированием и каталогизацией ссылок, присылаемых и публикуемых на форуме нашими читателями. Если вы являетесь правообладателем какого-либо представленного материала и не желаете, чтобы ссылка на него находилась в нашем каталоге, свяжитесь с нами, и мы незамедлительно удалим ее. Файлы для обмена на трекере предоставлены пользователями сайта, и администрация не несет ответственности за их содержание. Просьба не заливать файлы, защищенные авторскими правами, а также файлы нелегального содержания!