[ Сегодня идет свободное скачивание без начисления Download ]


Статистика раздачи
Нет
 
   
 
Top  
 
 
-Техасская резня бензопилой 3D / Texas Chainsaw 3D (2013) BDRip- Русское название: Техасская резня бензопилой 3D
Оригинальное название: Texas Chainsaw 3D
Год выпуска: 2013
Производство: США / Leatherface Productions, Lionsgate, Mainline Pictures Inc., Millennium Films, Nu-Image Films, Twisted Chainsaw Pictures
Жанр: ужасы, триллер
Перевод: Дублированный [Звук с CamRip]
Субтитры: Отсутствуют-Дата мировой премьеры: 3 января 2013
Дата российской премьеры: 7 февраля 2013, «Наше Кино»-Режиссер: Джон Льюсенхоп
Актеры: Александра Даддарио, Дэн Игер, Трей Сонгз, Скотт Иствуд, Таня Рэймонд, Шон Сайпос, Керам Малики-Санчес, Джеймс МакДональд, Том Бэрри, Пол Рэй-Описание фильма:
Местный шериф согласился организовать для Джеба Сойера, который и скрывался под Кожаным лицом, честный судебный процесс и предоставить ему адвоката. Однако его намерениям мешает мэр, который ведет за собой толпу людей, жаждущих линчевать кровавого маньяка. Когда ситуация начинает выходить из-под контроля, а горожане принимаются ладить петли для убийцы, кто-то бросает в дом Сойера бутылку с зажигательной смесью. Дом сгорает, а вместе с ним в огне гибнут и все, кто в нем находился, включая самого Джеба и его отца. Разумеется, спустя определенное время убийства с помощью бензопилы начинаются снова. Первое предположение шерифа — Джеб Сойер выжил и решил отомстить. Но он ли это на самом деле? И если нет, то кто?- -Продолжительность: 01:31:57
Качество видео: BDRip 3D
Формат 3D: Half OverUnder / Вертикальная анаморфная стереопара
Порядок ракурсов: Левый ракурс первый-Видеокодек: MPEG-4 AVC/H.264
Битрейт видео: ~8819 kb/s
Размер кадра: 1920х1080
Аудио#1: Русский: AC3 / 48 KHz / 2.0 / 128 kb/s (Дубляж - CamRip)
Аудио#2: Английский: AC3 / 48 KHz / 5.1 / 640 kb/s (Original - BD 3D)

MediaInfo

Общее
Уникальный идентификатор : 176935072300926722418891116361549035159 (0x851C7494CF7ACE59A5879C5576333697)
Полное имя : D:\Торрент раздача\TexasChainsaw3D(3D)2013.halfOU.AudioCam.mkv
Формат : Matroska
Версия формата : Version 2
Размер файла : 6,28 Гбайт
Продолжительность : 1 ч. 31 м.
Общий поток : 9781 Кбит/сек
Название фильма : Техасская резня бензопилой 3D / Texas Chainsaw 3D (3D) 2013
Дата кодирования : UTC 2013-05-03 15:50:12
Программа кодирования : mkvmerge v5.8.0 ('No Sleep / Pillow') built on Sep 2 2012 15:37:04
Библиотека кодирования : libebml v1.2.3 + libmatroska v1.3.0
Видео
Идентификатор : 1
Формат : AVC
Формат/Информация : Advanced Video Codec
Профиль формата : [email protected]
Параметр CABAC формата : Да
Параметр ReFrames формата : 4 кадра
Идентификатор кодека : V_MPEG4/ISO/AVC
Продолжительность : 1 ч. 31 м.
Битрейт : 8819 Кбит/сек
Ширина : 1920 пикселей
Высота : 1080 пикселей
Соотношение сторон : 16:9
Режим частоты кадров : Постоянный
Частота кадров : 23,976 кадра/сек
Цветовое пространство : YUV
Субдискретизация насыщенности : 4:2:0
Битовая глубина : 8 бит
Тип развёртки : Прогрессивная
Бит/(Пиксели*Кадры) : 0.177
Размер потока : 5,66 Гбайт (90%)
Заголовок : BDRip by Ash61
Библиотека кодирования : x264 core 129 r2245 bc13772
Настройки программы : cabac=1 / ref=4 / deblock=1:-3:-3 / analyse=0x3:0x113 / me=umh / subme=9 / psy=1 / psy_rd=1.00:0.15 / mixed_ref=1 / me_range=32 / chroma_me=1 / trellis=2 / 8x8dct=1 / cqm=0 / deadzone=21,11 / fast_pskip=1 / chroma_qp_offset=-3 / threads=12 / lookahead_threads=2 / sliced_threads=0 / nr=0 / decimate=1 / interlaced=0 / bluray_compat=0 / constrained_intra=0 / bframes=7 / b_pyramid=2 / b_adapt=2 / b_bias=0 / direct=3 / weightb=1 / open_gop=0 / weightp=2 / keyint=250 / keyint_min=23 / scenecut=40 / intra_refresh=0 / rc_lookahead=60 / rc=crf / mbtree=1 / crf=17.0 / qcomp=0.70 / qpmin=0 / qpmax=69 / qpstep=4 / vbv_maxrate=40000 / vbv_bufsize=30000 / crf_max=0.0 / nal_hrd=none / frame-packing=4 / ip_ratio=1.40 / aq=1:0.70
Язык : English
Default : Да
Forced : Нет
Аудио #1
Идентификатор : 2
Формат : AC-3
Формат/Информация : Audio Coding 3
Расширение режима : CM (complete main)
Параметр Endianness формата : Big
Идентификатор кодека : A_AC3
Продолжительность : 1 ч. 31 м.
Вид битрейта : Постоянный
Битрейт : 128 Кбит/сек
Каналы : 2 канала
Расположение каналов : Front: L R
Частота : 48,0 КГц
Битовая глубина : 16 бит
Метод сжатия : С потерями
Размер потока : 84,2 Мбайт (1%)
Заголовок : CamRip - отредактировано под BD3D-релизы by Ash61
Язык : Russian
Default : Да
Forced : Да
Аудио #2
Идентификатор : 3
Формат : AC-3
Формат/Информация : Audio Coding 3
Расширение режима : CM (complete main)
Параметр Endianness формата : Big
Идентификатор кодека : A_AC3
Продолжительность : 1 ч. 31 м.
Вид битрейта : Постоянный
Битрейт : 640 Кбит/сек
Каналы : 6 каналов
Расположение каналов : Front: L C R, Side: L R, LFE
Частота : 48,0 КГц
Битовая глубина : 16 бит
Метод сжатия : С потерями
Размер потока : 421 Мбайт (7%)
Заголовок : Original - BD3D
Язык : English
Default : Нет
Forced : Нет
Меню
00:00:00.000 : :1
00:05:50.767 : :2
00:13:10.081 : :3
00:19:32.296 : :4
00:26:39.223 : :5
00:31:56.623 : :6
00:38:02.197 : :7
00:43:00.536 : :8
00:47:00.359 : :9
00:49:55.201 : :10
00:52:09.418 : :11
00:56:26.008 : :12
00:59:24.644 : :13
01:06:09.674 : :14
01:13:03.629 : :15
01:18:13.939 : :16

Для оценки качества 3д - Анимированные скрины

Скриншоты:
Время раздачи: 24/7

[Цитировать]



Показать сообщения:    

Текущее время: 04-Дек 17:18

Часовой пояс: UTC + 3


Вы не можете начинать темы
Вы не можете отвечать на сообщения
Вы не можете редактировать свои сообщения
Вы не можете удалять свои сообщения
Вы не можете голосовать в опросах
Вы не можете прикреплять файлы к сообщениям
Вы не можете скачивать файлы

!ВНИМАНИЕ!
Сайт не предоставляет электронные версии произведений, а занимается лишь коллекционированием и каталогизацией ссылок, присылаемых и публикуемых на форуме нашими читателями. Если вы являетесь правообладателем какого-либо представленного материала и не желаете, чтобы ссылка на него находилась в нашем каталоге, свяжитесь с нами, и мы незамедлительно удалим ее. Файлы для обмена на трекере предоставлены пользователями сайта, и администрация не несет ответственности за их содержание. Просьба не заливать файлы, защищенные авторскими правами, а также файлы нелегального содержания!