[ Сегодня идет свободное скачивание без начисления Download ]


Статистика раздачи
Нет
 
   
 
Top  
 
 
-Даю год / I Give It a Year (2013) BDRip- Русское название: Даю год
Оригинальное название: I Give It a Year
Год выпуска: 2013
Производство: Великобритания / StudioCanal, Anton Capital Entertainment (ACE), Starcrossed Films
Жанр: Мелодрама, Комедия
Перевод: Дублированный [лицензия]
Субтитры: Отсутствуют-Дата мировой премьеры: 17 января 2013
Дата российской премьеры: 14 марта 2013, «Каскад»
Дата выхода DVD релиза: Апрель 2013, «Новый Диск»-Режиссер: Дэн Мазер
Продюсер: Тим Беван, Эрик Феллнер, Крис Тикье
Актеры: Роуз Бирн, Рейф Сполл, Анна Фэрис, Саймон Бейкер, Александр Макквин, Стивен Мерчант, Джейн Эшер, Теренс Харви, Минни Драйвер, Джейсон Флеминг-Описание фильма:
Фильм в комедийном ключе поведает о всевозможных проблемах и трудностях, с которыми приходится сталкиваться молодоженам в первый год их семейной жизни.- -Продолжительность: 01:37:25
Качество видео: BDRip-Видеокодек: MPEG-4 AVC/H.264
Битрейт видео: ~5471 kb/s
Размер кадра: 1280x536
Аудио#1: Русский - DTS, 1510 kb/s (6 ch)
Аудио#2: Английский - DTS, 1510 kb/s (6 ch)

MediaInfo

Общее
Уникальный идентификатор : 192698279810945012439658954683343579518 (0x90F856B7239C38A8AC63909AACC2297E)
Полное имя : D:\Торрент раздача\I.Give.It.a.Year.2013.720p.BluRay.DTS.Rus.Eng.mkv
Формат : Matroska
Версия формата : Version 2
Размер файла : 5,89 Гбайт
Продолжительность : 1 ч. 37 м.
Общий поток : 8662 Кбит/сек
Название фильма : I Give It a Year (2013)
Дата кодирования : UTC 2013-05-08 11:58:44
Программа кодирования : mkvmerge v5.2.0 ('I can't explain') built on Dec 18 2011 18:12:03
Библиотека кодирования : libebml v1.2.3 + libmatroska v1.3.0
Видео
Идентификатор : 1
Формат : AVC
Формат/Информация : Advanced Video Codec
Профиль формата : High@L4.1
Параметр CABAC формата : Да
Параметр ReFrames формата : 12 кадров
Идентификатор кодека : V_MPEG4/ISO/AVC
Продолжительность : 1 ч. 37 м.
Битрейт : 5471 Кбит/сек
Ширина : 1280 пикселей
Высота : 536 пикселей
Соотношение сторон : 2,40:1
Режим частоты кадров : Постоянный
Частота кадров : 23,976 кадра/сек
Цветовое пространство : YUV
Субдискретизация насыщенности : 4:2:0
Битовая глубина : 8 бит
Тип развёртки : Прогрессивная
Бит/(Пиксели*Кадры) : 0.333
Размер потока : 3,72 Гбайт (63%)
Заголовок : I Give It a Year 720p BluRay DTS x264-IRONCLUB
Библиотека кодирования : x264 core 132 r2310 76a5c3a
Настройки программы : cabac=1 / ref=12 / deblock=1:-3:-3 / analyse=0x3:0x113 / me=umh / subme=11 / psy=1 / psy_rd=1.05:0.00 / mixed_ref=1 / me_range=32 / chroma_me=1 / trellis=2 / 8x8dct=1 / cqm=0 / deadzone=21,11 / fast_pskip=0 / chroma_qp_offset=-2 / threads=12 / lookahead_threads=2 / sliced_threads=0 / nr=0 / decimate=1 / interlaced=0 / bluray_compat=0 / constrained_intra=0 / bframes=9 / b_pyramid=2 / b_adapt=2 / b_bias=0 / direct=3 / weightb=1 / open_gop=0 / weightp=2 / keyint=250 / keyint_min=23 / scenecut=40 / intra_refresh=0 / rc_lookahead=60 / rc=crf / mbtree=0 / crf=17.0 / qcomp=0.80 / qpmin=0 / qpmax=69 / qpstep=4 / vbv_maxrate=50000 / vbv_bufsize=62500 / crf_max=0.0 / nal_hrd=none / ip_ratio=1.30 / pb_ratio=1.10 / aq=1:0.90
Язык : English
Default : Да
Forced : Да
Коэффициенты матрицы : BT.709
Аудио #1
Идентификатор : 2
Формат : DTS
Формат/Информация : Digital Theater Systems
Режим : 16
Параметр Endianness формата : Big
Идентификатор кодека : A_DTS
Продолжительность : 1 ч. 37 м.
Вид битрейта : Постоянный
Битрейт : 1510 Кбит/сек
Каналы : 6 каналов
Расположение каналов : Front: L C R, Side: L R, LFE
Частота : 48,0 КГц
Битовая глубина : 24 бит
Метод сжатия : С потерями
Размер потока : 1,03 Гбайт (17%)
Заголовок : DTS 5.1 @ 1536 kbps - Dub, BD RUS
Язык : Russian
Default : Да
Forced : Да
Аудио #2
Идентификатор : 3
Формат : DTS
Формат/Информация : Digital Theater Systems
Режим : 16
Параметр Endianness формата : Big
Идентификатор кодека : A_DTS
Продолжительность : 1 ч. 37 м.
Вид битрейта : Постоянный
Битрейт : 1510 Кбит/сек
Каналы : 6 каналов
Расположение каналов : Front: L C R, Side: L R, LFE
Частота : 48,0 КГц
Битовая глубина : 24 бит
Метод сжатия : С потерями
Размер потока : 1,03 Гбайт (17%)
Заголовок : DTS 5.1 @ 1536 kbps
Язык : English
Default : Нет
Forced : Нет
Меню
00:00:00.000 : en:00:00:00.000
00:00:33.491 : en:00:00:33.491
00:10:28.169 : en:00:10:28.169
00:23:03.882 : en:00:23:03.882
00:34:08.588 : en:00:34:08.588
00:47:15.541 : en:00:47:15.541
01:00:37.091 : en:01:00:37.091
01:11:31.704 : en:01:11:31.704
01:20:38.250 : en:01:20:38.250
Скриншоты:
Время раздачи: 24/7

[Цитировать]

Топик был перенесен из форума Новинки кинопроката (HD Video) в форум Зарубежное кино (HD Video)
Bootch



Показать сообщения:    

Текущее время: 02-Дек 21:06

Часовой пояс: UTC + 3


Вы не можете начинать темы
Вы не можете отвечать на сообщения
Вы не можете редактировать свои сообщения
Вы не можете удалять свои сообщения
Вы не можете голосовать в опросах
Вы не можете прикреплять файлы к сообщениям
Вы не можете скачивать файлы

!ВНИМАНИЕ!
Сайт не предоставляет электронные версии произведений, а занимается лишь коллекционированием и каталогизацией ссылок, присылаемых и публикуемых на форуме нашими читателями. Если вы являетесь правообладателем какого-либо представленного материала и не желаете, чтобы ссылка на него находилась в нашем каталоге, свяжитесь с нами, и мы незамедлительно удалим ее. Файлы для обмена на трекере предоставлены пользователями сайта, и администрация не несет ответственности за их содержание. Просьба не заливать файлы, защищенные авторскими правами, а также файлы нелегального содержания!