[ Сегодня идет свободное скачивание без начисления Download ]


Статистика раздачи
Нет
 
   
 
Top  
 
 
-Город порока / Broken City (2013) BDRip- Русское название: Город порока
Оригинальное название: Broken City
Год выпуска: 2013
Производство: США -1984 Private Defense Contractors, New Regency Pictures
Жанр: Триллер, Драма, Криминал
Перевод: Дублированный (чистый звук), многоголосый закадровый
Субтитры: Вшитые отключаемые
Язык субтитров: Английский, испанский, чешский, греческий
Режиссер: Аллен Хьюз / Allen Hughes
Продюсер: Ремингтон Чейз, Рэндолл Эмметт, Джордж Фурла
Актеры: Марк Уолберг, Рассел Кроу, Кэтрин Зета-Джонс, Барри Пеппер, Кайл Чандлер, Натали Мартинез, Джеффри Райт, Алона Тал, Майкл Бич, Джеймс Рэнсон
Описание фильма:
История бывшего полицейского Билли Таггерта. 7 лет назад он стрелял в 16-летнего подростка, за что был уволен из полиции. Теперь Таггерт работает частным детективом, которого нанимает мэр, чтобы тот разузнал, не изменяет ли ему жена. Однако расследование адюльтера супруги мэра выливается в настоящий скандал. Человек, с которым жена мэра изменяла мужу, убит, а на поверхность всплывает нехорошая история с недвижимостью.

Дата мировой премьеры: 18 января 2013
Продолжительность: 01:48:40
Качество видео: BDRip 1080p
Видеокодек: MPEG-4 AVC/H.264
Видео: H.264, 14.0 Мбит/с, 1920x1080, 23,976 кадра/сек
Аудио #1: Русский: AC3, 448 кбит/c, 5.1, 48 kHz, 16 bit - дублированный
Аудио #2: Русский: DTS, 1536 кбит/c, 5.1, 48 kHz, 16 bit - многоголосый закадровый
Аудио #3: Английский: DTS, 1536 кбит/c, 5.1, 48 kHz, 24 bit
Сохранены оригинальные чаптеры как на Blu-Ray

Рецензия, отзыв о фильме:

Неладно что-то в Нью-Йоркском королевстве
Если говорить совсем-совсем коротко, то перед нами очередной голливудский политический триллер. Да, со звездами первой величины, да, достаточно многоплановый, с несколькими сюжетными линиями. Но слово «очередной» тут главное.
Политика, по моему скромному мнению, неразрывно связана с махинациями, а лицо Рассела Кроу повышает шансы этой вероятности практически до 100%. Тут еще и шеф полиции — друг и ставленник мэра, и чистенький-аккуратненький кандидат — миллионер по совместительству, размазня по характеру, и бывший коп, ныне детектив, ушедший когда-то из полиции из-за скандала с убийством.
Поначалу все закручено в спираль ДНК, но очень быстро понимаешь, что на самом деле все довольно прозрачно, а детали в принципе не имеют значения. Самое плохое — фильм не держит внимания. Вроде бы он и напряженный, и злободневный, и вообще, вероятно, «основан на…», но… неинтересно.
А может просто, смотреть его надо пасмурной осенью или вьюжной зимой, когда темнеет рано и как-то сильнее верится в людскую подлость. Весна же с ее ярким цветом и неумолчным щебетом совсем не время для политических триллеров.
6 из 10

MediaInfo:

Общее
Уникальный идентификатор : 252611384720561132234719046011294759886 (0xBE0B2ED9EAAE4B078348A6CFBD4ABBCE)
Полное имя : D:\Video\Broken.City.2013.BDRip.1080p.DTS.x264.ac3.dts.Rus.Eng.mkv
Формат : Matroska
Версия формата : Version 2
Размер файла : 13,3 Гбайт
Продолжительность : 1 ч. 48 м.
Режим общего битрейта : Переменный
Общий поток : 17,5 Мбит/сек
Название фильма : VarMkn
Дата кодирования : UTC 2013-05-03 13:55:07
Программа кодирования : mkvmerge v5.4.0 ('Piper') built on Mar 10 2012 13:34:39
Библиотека кодирования : libebml v1.2.3 + libmatroska v1.3.0
Видео
Идентификатор : 1
Формат : AVC
Формат/Информация : Advanced Video Codec
Профиль формата : High@L4.1
Параметр CABAC формата : Да
Параметр ReFrames формата : 4 кадра
Идентификатор кодека : V_MPEG4/ISO/AVC
Продолжительность : 1 ч. 48 м.
Вид битрейта : Переменный
Битрейт : 14,0 Мбит/сек
Максимальный битрейт : 30,0 Мбит/сек
Ширина : 1920 пикселей
Высота : 1080 пикселей
Соотношение сторон : 16:9
Частота кадров : 23,976 кадра/сек
Цветовое пространство : YUV
Субдискретизация насыщенности : 4:2:0
Битовая глубина : 8 бит
Тип развёртки : Прогрессивная
Бит/(Пиксели*Кадры) : 0.282
Размер потока : 10,4 Гбайт (78%)
Библиотека кодирования : x264 core 130 r2273 b3065e6
Настройки программы : cabac=1 / ref=4 / deblock=1:0:0 / analyse=0x3:0x133 / me=umh / subme=9 / psy=1 / psy_rd=1.00:0.00 / mixed_ref=1 / me_range=16 / chroma_me=1 / trellis=2 / 8x8dct=1 / cqm=0 / deadzone=21,11 / fast_pskip=1 / chroma_qp_offset=-2 / threads=12 / lookahead_threads=1 / sliced_threads=0 / slices=4 / nr=0 / decimate=1 / interlaced=0 / bluray_compat=1 / constrained_intra=0 / bframes=3 / b_pyramid=0 / b_adapt=1 / b_bias=0 / direct=3 / weightb=1 / open_gop=0 / weightp=1 / keyint=24 / keyint_min=1 / scenecut=40 / intra_refresh=0 / rc_lookahead=24 / rc=2pass / mbtree=1 / bitrate=14020 / ratetol=1.0 / qcomp=0.60 / qpmin=0 / qpmax=69 / qpstep=4 / cplxblur=20.0 / qblur=0.5 / vbv_maxrate=30000 / vbv_bufsize=30000 / nal_hrd=vbr / ip_ratio=1.10 / aq=1:1.00
Язык : English
Default : Нет
Forced : Нет
Аудио #1
Идентификатор : 2
Формат : AC-3
Формат/Информация : Audio Coding 3
Расширение режима : CM (complete main)
Идентификатор кодека : A_AC3
Продолжительность : 1 ч. 48 м.
Вид битрейта : Постоянный
Битрейт : 448 Кбит/сек
Каналы : 6 каналов
Расположение каналов : Front: L C R, Side: L R, LFE
Частота : 48,0 КГц
Битовая глубина : 16 бит
Метод сжатия : С потерями
Размер потока : 348 Мбайт (3%)
Заголовок : DD 4486 - Line
Язык : Russian
Default : Нет
Forced : Нет
Аудио #2
Идентификатор : 3
Формат : DTS
Формат/Информация : Digital Theater Systems
Идентификатор кодека : A_DTS
Продолжительность : 1 ч. 48 м.
Вид битрейта : Постоянный
Битрейт : 1510 Кбит/сек
Каналы : 6 каналов
Расположение каналов : Front: L C R, Side: L R, LFE
Частота : 48,0 КГц
Битовая глубина : 16 бит
Метод сжатия : С потерями
Размер потока : 1,15 Гбайт (9%)
Заголовок : DTS 1536 - MVO
Язык : Russian
Default : Нет
Forced : Нет
Аудио #3
Идентификатор : 4
Формат : DTS
Формат/Информация : Digital Theater Systems
Идентификатор кодека : A_DTS
Продолжительность : 1 ч. 48 м.
Вид битрейта : Постоянный
Битрейт : 1510 Кбит/сек
Каналы : 6 каналов
Расположение каналов : Front: L C R, Side: L R, LFE
Частота : 48,0 КГц
Битовая глубина : 24 бит
Метод сжатия : С потерями
Размер потока : 1,15 Гбайт (9%)
Заголовок : DTS 1536
Язык : English
Default : Нет
Forced : Нет
Текст #1
Идентификатор : 5
Формат : UTF-8
Идентификатор кодека : S_TEXT/UTF8
Идентификатор кодека/Информация : UTF-8 Plain Text
Заголовок : English Subtitles
Язык : English
Default : Нет
Forced : Нет
Текст #2
Идентификатор : 6
Формат : UTF-8
Идентификатор кодека : S_TEXT/UTF8
Идентификатор кодека/Информация : UTF-8 Plain Text
Заголовок : Spanish Subtitles
Язык : Spanish
Default : Нет
Forced : Нет
Текст #3
Идентификатор : 7
Формат : UTF-8
Идентификатор кодека : S_TEXT/UTF8
Идентификатор кодека/Информация : UTF-8 Plain Text
Заголовок : Czesh Subtitles
Язык : Czech
Default : Нет
Forced : Нет
Текст #4
Идентификатор : 8
Формат : UTF-8
Идентификатор кодека : S_TEXT/UTF8
Идентификатор кодека/Информация : UTF-8 Plain Text
Заголовок : Greek Subtitles
Язык : Greek
Default : Нет
Forced : Нет
Меню
00:00:00.000 : en:00:00:00.000
00:07:27.447 : en:00:07:27.447
00:14:28.325 : en:00:14:28.325
00:20:49.122 : en:00:20:49.122
00:29:02.157 : en:00:29:02.157
00:34:05.460 : en:00:34:05.460
00:40:37.518 : en:00:40:37.518
00:46:11.685 : en:00:46:11.685
00:52:03.370 : en:00:52:03.370
01:00:58.571 : en:01:00:58.571
01:08:01.619 : en:01:08:01.619
01:14:20.873 : en:01:14:20.873
01:23:21.121 : en:01:23:21.121
01:28:38.021 : en:01:28:38.021
01:35:52.163 : en:01:35:52.163
01:42:36.525 : en:01:42:36.525
01:48:40.472 : en:01:48:40.472
Скриншоты:


Время раздачи: с 10:00 до 20:00 (GMT+2) - до 15 скачавших

[Цитировать]

Топик был перенесен из форума Новинки кинопроката (HD Video) в форум Зарубежное кино (HD Video)
Bootch



Показать сообщения:    

Текущее время: 09-Дек 22:22

Часовой пояс: UTC + 3


Вы не можете начинать темы
Вы не можете отвечать на сообщения
Вы не можете редактировать свои сообщения
Вы не можете удалять свои сообщения
Вы не можете голосовать в опросах
Вы не можете прикреплять файлы к сообщениям
Вы не можете скачивать файлы

!ВНИМАНИЕ!
Сайт не предоставляет электронные версии произведений, а занимается лишь коллекционированием и каталогизацией ссылок, присылаемых и публикуемых на форуме нашими читателями. Если вы являетесь правообладателем какого-либо представленного материала и не желаете, чтобы ссылка на него находилась в нашем каталоге, свяжитесь с нами, и мы незамедлительно удалим ее. Файлы для обмена на трекере предоставлены пользователями сайта, и администрация не несет ответственности за их содержание. Просьба не заливать файлы, защищенные авторскими правами, а также файлы нелегального содержания!