[ Сегодня идет свободное скачивание без начисления Download ]


Статистика раздачи
Нет
 
   
 
Top  
 
 
-Грязные игры / The Company You Keep (2012) BDRip- Русское название: Грязные игры
Оригинальное название: The Company You Keep
Год выпуска: 2012
Производство: США - Voltage Pictures, Wildwood Enterprises, Brightlight Pictures
Жанр: Триллер
Перевод: Дублированный (чистый звук)
Субтитры: Вшитые отключаемые
Язык субтитров: Английский
Режиссер: Роберт Редфорд / Robert Redford
Актеры: Роберт Редфорд, Шайа ЛаБаф, Джули Кристи, Сьюзен Сарандон, Ник Нолти, Крис Купер, Терренс Ховард, Стэнли Туччи, Ричард Дженкинс, Анна Кендрик
Описание фильма:
Случайная дорожная катастрофа выводит на след громкого преступления, совершенного 30 лет назад. Молодой журналист подступает к разгадке тайны темного маргинального прошлого известного адвоката.

Дата мировой премьеры: 6 сентября 2012
Продолжительность: 02:04:51
Качество видео: BDRip 1080p
Видеокодек: MPEG-4 AVC/H.264
Видео: H.264, 12.0 Мбит/сек, 1920x800
Аудио #1: Русский: AC3, 448 кбит/c, 5.1, 48 kHz, 16 bit
Аудио #2: Английский: DTS, 1536 кбит/c, 5.1, 48 kHz, 24 bit
Сохранены оригинальные чаптеры как на Blu-Ray

MediaInfo:

Общее
Уникальный идентификатор : 216269639439806535164067586046798675824 (0xA2B40478A5199A4EB1DD2814C1A53F70)
Полное имя : D:\Video\The.Company.You.Keep.2012.BDRip 1080p.mkv
Формат : Matroska
Версия формата : Version 2
Размер файла : 12,1 Гбайт
Продолжительность : 2 ч. 4 м.
Общий поток : 13,9 Мбит/сек
Дата кодирования : UTC 2013-04-30 22:43:17
Программа кодирования : mkvmerge v5.6.0 ('Kenya Kane') built on May 27 2012 16:44:04
Библиотека кодирования : libebml v1.2.3 + libmatroska v1.3.0
Видео
Идентификатор : 1
Формат : AVC
Формат/Информация : Advanced Video Codec
Профиль формата : High@L4.1
Параметр CABAC формата : Да
Параметр ReFrames формата : 5 кадров
Идентификатор кодека : V_MPEG4/ISO/AVC
Продолжительность : 2 ч. 4 м.
Битрейт : 12,0 Мбит/сек
Ширина : 1920 пикселей
Высота : 800 пикселей
Соотношение сторон : 2,40:1
Частота кадров : 24,000 кадра/сек
Цветовое пространство : YUV
Субдискретизация насыщенности : 4:2:0
Битовая глубина : 8 бит
Тип развёртки : Прогрессивная
Бит/(Пиксели*Кадры) : 0.326
Размер потока : 10,2 Гбайт (84%)
Библиотека кодирования : x264 core 130 r2273 b3065e6
Настройки программы : cabac=1 / ref=5 / deblock=1:-3:-3 / analyse=0x3:0x113 / me=umh / subme=10 / psy=1 / psy_rd=1.10:0.05 / mixed_ref=1 / me_range=48 / chroma_me=1 / trellis=2 / 8x8dct=1 / cqm=0 / deadzone=21,11 / fast_pskip=0 / chroma_qp_offset=-3 / threads=6 / lookahead_threads=1 / sliced_threads=0 / nr=0 / decimate=0 / interlaced=0 / bluray_compat=0 / constrained_intra=0 / bframes=8 / b_pyramid=2 / b_adapt=2 / b_bias=0 / direct=3 / weightb=1 / open_gop=0 / weightp=2 / keyint=240 / keyint_min=24 / scenecut=40 / intra_refresh=0 / rc_lookahead=240 / rc=2pass / mbtree=1 / bitrate=12000 / ratetol=1.0 / qcomp=0.70 / qpmin=0 / qpmax=69 / qpstep=4 / cplxblur=20.0 / qblur=0.5 / ip_ratio=1.10 / aq=1:0.85
Язык : English
Default : Да
Forced : Нет
Аудио #1
Идентификатор : 2
Формат : AC-3
Формат/Информация : Audio Coding 3
Расширение режима : CM (complete main)
Идентификатор кодека : A_AC3
Продолжительность : 2 ч. 4 м.
Вид битрейта : Постоянный
Битрейт : 448 Кбит/сек
Каналы : 6 каналов
Расположение каналов : Front: L C R, Side: L R, LFE
Частота : 48,0 КГц
Битовая глубина : 16 бит
Метод сжатия : С потерями
Размер потока : 400 Мбайт (3%)
Язык : Russian
Default : Да
Forced : Нет
Аудио #2
Идентификатор : 3
Формат : DTS
Формат/Информация : Digital Theater Systems
Идентификатор кодека : A_DTS
Продолжительность : 2 ч. 4 м.
Вид битрейта : Постоянный
Битрейт : 1510 Кбит/сек
Каналы : 6 каналов
Расположение каналов : Front: L C R, Side: L R, LFE
Частота : 48,0 КГц
Битовая глубина : 24 бит
Метод сжатия : С потерями
Размер потока : 1,32 Гбайт (11%)
Заголовок : DTS @ 1509 kbps
Язык : English
Default : Нет
Forced : Нет
Текст
Идентификатор : 4
Формат : UTF-8
Идентификатор кодека : S_TEXT/UTF8
Идентификатор кодека/Информация : UTF-8 Plain Text
Язык : English
Default : Да
Forced : Нет
Меню
00:00:00.000 : en:00:00:00.000
00:09:49.125 : en:00:09:49.125
00:18:38.250 : en:00:18:38.250
00:28:55.917 : en:00:28:55.917
00:34:04.000 : en:00:34:04.000
00:47:14.167 : en:00:47:14.167
00:55:48.375 : en:00:55:48.375
01:04:25.708 : en:01:04:25.708
01:12:10.583 : en:01:12:10.583
01:24:34.000 : en:01:24:34.000
01:32:49.542 : en:01:32:49.542
01:44:39.083 : en:01:44:39.083
02:02:08.208 : en:02:02:08.208
Скриншоты:


Время раздачи: с 10:00 до 20:00 (GMT+2) - до 15 скачавших

[Цитировать]



Показать сообщения:    

Текущее время: 10-Дек 09:58

Часовой пояс: UTC + 3


Вы не можете начинать темы
Вы не можете отвечать на сообщения
Вы не можете редактировать свои сообщения
Вы не можете удалять свои сообщения
Вы не можете голосовать в опросах
Вы не можете прикреплять файлы к сообщениям
Вы не можете скачивать файлы

!ВНИМАНИЕ!
Сайт не предоставляет электронные версии произведений, а занимается лишь коллекционированием и каталогизацией ссылок, присылаемых и публикуемых на форуме нашими читателями. Если вы являетесь правообладателем какого-либо представленного материала и не желаете, чтобы ссылка на него находилась в нашем каталоге, свяжитесь с нами, и мы незамедлительно удалим ее. Файлы для обмена на трекере предоставлены пользователями сайта, и администрация не несет ответственности за их содержание. Просьба не заливать файлы, защищенные авторскими правами, а также файлы нелегального содержания!