[ Сегодня идет свободное скачивание без начисления Download ]


Статистика раздачи
Нет
 
   
 
Top  
 
 
-Горячие головы / Hot Shots! (1991) BDRemux- Русское название: Горячие головы
Оригинальное название: Hot Shots!
Год выпуска: 1991
Жанр: Боевик, Комедия, Военный
Описание фильма:
Анекдотичные ситуации на военной базе, где герои, сами того не замечая, пародируют самые известные фильмы, заставят вас безудержно хохотать на протяжении всего фильма. Их горячие головы производят такое количество несуразных идей, что находиться рядом с ними просто опасно для здоровья.
Режиссер: Джим Абрахамс
Актеры: Чарли Шин, Кэри Элвис, Валерия Голино, Ллойд Бриджес, Кевин Данн, Джон Крайер, Уильям О’Лири, Кристи Суонсон, Ефрем Цимбалист мл., Билл Ирвин
Продолжительность: 01:24:47
Перевод: Двуголосый закадровый, Многоголосый закадровый, Дублированный, Авторский одноголосый
Язык субтитров: Русский, Украинский (UTF-8), Английский (SDH) (PGS)
Вид субтитров: Вшитые отключаемые

Видеокодек: MPEG-4 AVC/H.264
Битрейт видео: ~32551 kbps
Размер кадра: 1920 x 1080
Качество видео: BDRemux 1080p
Аудио 1: Русский, AC3 2.0, 384 kbps, 48 kHz (DVO, НТВ+)
Аудио 2: Русский, AC3 2.0, 384 kbps, 48 kHz (MVO, ОРТ)
Аудио 3: Русский, AC3 2.0, 384 kbps, 48 kHz (DVO, Премьер-видео)
Аудио 4: Русский, AC3 2.0, 384 kbps, 48 kHz (Дубляж, Киностудия им. Горького)
Аудио 5: Русский, AC3 2.0, 384 kbps, 48 kHz (AVO, Михалев)
Аудио 6: Русский, AC3 2.0, 384 kbps, 48 kHz (AVO, Живов)
Аудио 7: Украинский, AC3 2.0, 384 kbps, 48 kHz (DVO)
Аудио 8: Английский, DTS-HD MA 5.1, 3445 kbps, 48 kHz (Оригинал)-Сэмпл: Ссылка-

Знаете ли вы, что...

? В титрах написано несколько кулинарных рецептов.
? Реактивные самолеты, задействованные в съемках — британские легкие истребители Folland Gnat. Они никогда не состояли на вооружении Американских вооруженных сил.
? Иракские перехватчики и двухместный истребитель в начале фильма изображены самолетами F-5 «Фридом Файтер».
? В сериале «Два с половиной человека» играет Чарли Шин и его имя Чарли Харпер, фамилия Харпер — комбинация имени Топер Харли из Горячих голов.
? Также в сериале «Два с половиной человека» в роли Алана Харпера снимается Джон Крайер — «Отстой» из Горячих голов. А Раян Стилс — пилот Мелман Ферман в горячих головах в «Два с половиной человека» играет Доктора Херба Мельника.
? В одном из эпизодов пародируется фильм Рокки.
-

MediaInfo:

Общее
Уникальный идентификатор : 170972540998582148831105041986712109332 (0x80A01D175C7AD1DF927BAD15E8960114)
Полное имя : D:\Films\Hot.Shots.Dilogy.1991.1993.1080p.BDRemux\Hot.Shots.1991.BDRemux.1080p.mkv
Формат : Matroska
Версия формата : Version 2
Размер файла : 22,7 Гбайт
Продолжительность : 1 ч. 24 м.
Режим общего битрейта : Переменный
Общий поток : 38,3 Мбит/сек
Дата кодирования : UTC 2013-05-12 12:38:50
Программа кодирования : mkvmerge v5.2.0 ('I can't explain') built on Dec 18 2011 18:12:03
Библиотека кодирования : libebml v1.2.3 + libmatroska v1.3.0
Видео
Идентификатор : 1
Формат : AVC
Формат/Информация : Advanced Video Codec
Профиль формата : [email protected]
Параметр CABAC формата : Да
Параметр ReFrames формата : 4 кадра
Идентификатор кодека : V_MPEG4/ISO/AVC
Продолжительность : 1 ч. 24 м.
Вид битрейта : Переменный
Максимальный битрейт : 33,0 Мбит/сек
Ширина : 1920 пикселей
Высота : 1080 пикселей
Соотношение сторон : 16:9
Режим частоты кадров : Постоянный
Частота кадров : 23,976 кадра/сек
Цветовое пространство : YUV
Субдискретизация насыщенности : 4:2:0
Битовая глубина : 8 бит
Тип развёртки : Прогрессивная
Язык : English
Default : Да
Forced : Нет
Аудио #1
Идентификатор : 2
Формат : AC-3
Формат/Информация : Audio Coding 3
Расширение режима : CM (complete main)
Параметр Endianness формата : Big
Идентификатор кодека : A_AC3
Продолжительность : 1 ч. 24 м.
Вид битрейта : Постоянный
Битрейт : 384 Кбит/сек
Каналы : 2 канала
Расположение каналов : Front: L R
Частота : 48,0 КГц
Битовая глубина : 16 бит
Метод сжатия : С потерями
Размер потока : 233 Мбайт (1%)
Заголовок : DVO НТВ+
Язык : Russian
Default : Да
Forced : Нет
Аудио #2
Идентификатор : 3
Формат : AC-3
Формат/Информация : Audio Coding 3
Расширение режима : CM (complete main)
Параметр Endianness формата : Big
Идентификатор кодека : A_AC3
Продолжительность : 1 ч. 24 м.
Вид битрейта : Постоянный
Битрейт : 384 Кбит/сек
Каналы : 2 канала
Расположение каналов : Front: L R
Частота : 48,0 КГц
Битовая глубина : 16 бит
Метод сжатия : С потерями
Размер потока : 233 Мбайт (1%)
Заголовок : MVO ОРТ
Язык : Russian
Default : Нет
Forced : Нет
Аудио #3
Идентификатор : 4
Формат : AC-3
Формат/Информация : Audio Coding 3
Расширение режима : CM (complete main)
Параметр Endianness формата : Big
Идентификатор кодека : A_AC3
Продолжительность : 1 ч. 24 м.
Вид битрейта : Постоянный
Битрейт : 384 Кбит/сек
Каналы : 2 канала
Расположение каналов : Front: L R
Частота : 48,0 КГц
Битовая глубина : 16 бит
Метод сжатия : С потерями
Размер потока : 233 Мбайт (1%)
Заголовок : DVO Премьер-видео
Язык : Russian
Default : Нет
Forced : Нет
Аудио #4
Идентификатор : 5
Формат : AC-3
Формат/Информация : Audio Coding 3
Расширение режима : CM (complete main)
Параметр Endianness формата : Big
Идентификатор кодека : A_AC3
Продолжительность : 1 ч. 24 м.
Вид битрейта : Постоянный
Битрейт : 384 Кбит/сек
Каналы : 2 канала
Расположение каналов : Front: L R
Частота : 48,0 КГц
Битовая глубина : 16 бит
Метод сжатия : С потерями
Размер потока : 233 Мбайт (1%)
Заголовок : DUB Киностудия им. Горького
Язык : Russian
Default : Нет
Forced : Нет
Аудио #5
Идентификатор : 6
Формат : AC-3
Формат/Информация : Audio Coding 3
Расширение режима : CM (complete main)
Параметр Endianness формата : Big
Идентификатор кодека : A_AC3
Продолжительность : 1 ч. 24 м.
Вид битрейта : Постоянный
Битрейт : 384 Кбит/сек
Каналы : 2 канала
Расположение каналов : Front: L R
Частота : 48,0 КГц
Битовая глубина : 16 бит
Метод сжатия : С потерями
Размер потока : 233 Мбайт (1%)
Заголовок : AVO Михалев
Язык : Russian
Default : Нет
Forced : Нет
Аудио #6
Идентификатор : 7
Формат : AC-3
Формат/Информация : Audio Coding 3
Расширение режима : CM (complete main)
Параметр Endianness формата : Big
Идентификатор кодека : A_AC3
Продолжительность : 1 ч. 24 м.
Вид битрейта : Постоянный
Битрейт : 384 Кбит/сек
Каналы : 2 канала
Расположение каналов : Front: L R
Частота : 48,0 КГц
Битовая глубина : 16 бит
Метод сжатия : С потерями
Размер потока : 233 Мбайт (1%)
Заголовок : AVO Живов
Язык : Russian
Default : Нет
Forced : Нет
Аудио #7
Идентификатор : 8
Формат : AC-3
Формат/Информация : Audio Coding 3
Расширение режима : CM (complete main)
Параметр Endianness формата : Big
Идентификатор кодека : A_AC3
Продолжительность : 1 ч. 24 м.
Вид битрейта : Постоянный
Битрейт : 384 Кбит/сек
Каналы : 2 канала
Расположение каналов : Front: L R
Частота : 48,0 КГц
Битовая глубина : 16 бит
Метод сжатия : С потерями
Размер потока : 233 Мбайт (1%)
Заголовок : DVO
Язык : Ukrainian
Default : Нет
Forced : Нет
Аудио #8
Идентификатор : 9
Формат : DTS
Формат/Информация : Digital Theater Systems
Профиль формата : MA / Core
Режим : 16
Параметр Endianness формата : Big
Идентификатор кодека : A_DTS
Продолжительность : 1 ч. 24 м.
Вид битрейта : Переменный
Битрейт : Неизвестно / 1509 Кбит/сек
Каналы : 6 каналов
Расположение каналов : Front: L C R, Side: L R, LFE
Частота : 48,0 КГц
Битовая глубина : 24 бит
Метод сжатия : Без потерь / Lossy
Заголовок : Lossless
Язык : English
Default : Нет
Forced : Нет
Текст #1
Идентификатор : 10
Формат : UTF-8
Идентификатор кодека : S_TEXT/UTF8
Идентификатор кодека/Информация : UTF-8 Plain Text
Язык : Russian
Default : Нет
Forced : Нет
Текст #2
Идентификатор : 11
Формат : UTF-8
Идентификатор кодека : S_TEXT/UTF8
Идентификатор кодека/Информация : UTF-8 Plain Text
Язык : Ukrainian
Default : Нет
Forced : Нет
Текст #3
Идентификатор : 12
Формат : PGS
Режим смешивания : zlib
Идентификатор кодека : S_HDMV/PGS
Идентификатор кодека/Информация : The same subtitle format used on BDs/HD-DVDs
Язык : English
Default : Нет
Forced : Нет
Меню
00:00:00.000 : en:Chapter 00
00:02:22.267 : en:Chapter 01
00:04:50.331 : en:Chapter 02
00:08:06.944 : en:Chapter 03
00:10:09.650 : en:Chapter 04
00:11:13.214 : en:Chapter 05
00:18:33.028 : en:Chapter 06
00:21:34.584 : en:Chapter 07
00:26:19.744 : en:Chapter 08
00:29:02.449 : en:Chapter 09
00:35:13.569 : en:Chapter 10
00:37:50.518 : en:Chapter 11
00:46:03.635 : en:Chapter 12
00:48:37.080 : en:Chapter 13
00:53:36.338 : en:Chapter 14
00:55:57.729 : en:Chapter 15
00:58:52.111 : en:Chapter 16
01:04:12.473 : en:Chapter 17
01:06:26.941 : en:Chapter 18
01:08:35.277 : en:Chapter 19
01:11:46.510 : en:Chapter 20
01:16:46.768 : en:Chapter 21
01:18:45.137 : en:Chapter 22
01:19:54.956 : en:Chapter 23
-Скриншоты:
---Горячие головы 2 / Hot Shots! Part Deux (1993) BDRemux- Русское название: Горячие головы 2
Оригинальное название: Hot Shots! Part Deux
Год выпуска: 1993
Жанр: Боевик, Комедия, Военный
Описание фильма:
На этот раз пилот-ас Топпер Харли, покинув службу, живет в далеком тибетском монастыре, где он нашел гармонию внутри себя, сбалансировав свой Инь и Янь. Но стране снова нужен герой.
И он, с неохотой покидая полюбившихся ему монахов, возвращается на службу. Ему поручается секретное задание по спасению заложников из лап Саддама Хусейна. Но к всеобщей радости, Топпер — необычный человек, который все переворачивает с ног на голову.
Режиссер: Джим Абрахамс
Актеры: Чарли Шин, Валерия Голино, Ллойд Бриджес, Ричард Кренна, Бренда Бакки, Мигель Феррер, Роуэн Эткинсон, Джерри Халева, Дэвид Уол, Митч Райан
Продолжительность: 01:28:33
Перевод: Двуголосый закадровый, Многоголосый закадровый, Дублированный, Авторский одноголосый
Язык субтитров: Русский, Украинский (UTF-8), Английский (SDH) (PGS)
Вид субтитров: Вшитые отключаемые

Видеокодек: MPEG-4 AVC/H.264
Битрейт видео: ~31900 kbps
Размер кадра: 1920 x 1080
Качество видео: BDRemux 1080p
Аудио 1: Русский, AC3 2.0, 384 kbps, 48 kHz (DVO, НТВ+)
Аудио 2: Русский, AC3 2.0, 384 kbps, 48 kHz (MVO, ОРТ)
Аудио 3: Русский, AC3 2.0, 384 kbps, 48 kHz (DVO, Премьер-видео)
Аудио 4: Русский, AC3 2.0, 384 kbps, 48 kHz (Дубляж, Киностудия им. Горького)
Аудио 5: Русский, AC3 2.0, 384 kbps, 48 kHz (AVO, Живов)
Аудио 6: Русский, AC3 2.0, 384 kbps, 48 kHz (AVO, Михалев)
Аудио 7: Русский, AC3 2.0, 384 kbps, 48 kHz (AVO, Горчаков)
Аудио 8: Украинский, AC3 2.0, 384 kbps, 48 kHz (DVO)
Аудио 9: Английский, DTS-HD MA 5.1, 2992 kbps, 48 kHz (Оригинал)-Сэмпл: Ссылка-

Из книги «3500 кинорецензий»

Джим Эбрахамс в продолжении «Горячих голов» переключился на пародирование иных «милитаристских киноциклов Голливуда» — «Рэмбо» (откуда как раз и позаимствован актёр Ричард Кренна, вновь играющий армейского полковника) и «Пропавшие без вести на поле боя». Но порой возникает впечатление, что режиссёр почти всерьёз решил установить рекорд по количеству убитых на экране (всего их насчитали 114) и чересчур дотошно воспроизвёл эпизод освобождения заложников из иракского плена после «войны в заливе».
Этой ленте явно не хватает смешных интермедий, таких, как в первой серии, которой она уступила по кассовым сборам почти в два раза (зато практически ту же сумму около ста миллионов получила за пределами США). Пожалуй, лучшей шуткой оказалась подсказка из финальных титров: «Секрет фильма «Возмутительная игра» заключается в том, что она — парень». Ну, и в названии «Горячие головы, часть deux» был дан «достойный ответ» картине «С пистолетом наголо 2 1/2», поскольку никто в Голливуде ранее не догадывался присваивать продолжению порядковый номер на французский манер да ещё с гипотетическим созвучием слов Part Deux и pas de deux. Почему бы подобному «комическому кинобалету с перестрелками» и не иметь собственное па-де-де!
1993
-

MediaInfo:

Общее
Уникальный идентификатор : 241591779523606419074294488310476954283 (0xB5C0E25E3920C42A99036F407943DAAB)
Полное имя : D:\Films\Hot.Shots.Dilogy.1991.1993.1080p.BDRemux\Hot.Shots.Part.Deux.1993.BDRemux1080p.mkv
Формат : Matroska
Версия формата : Version 2
Размер файла : 23,3 Гбайт
Продолжительность : 1 ч. 28 м.
Режим общего битрейта : Переменный
Общий поток : 37,7 Мбит/сек
Дата кодирования : UTC 2013-05-12 11:32:26
Программа кодирования : mkvmerge v5.2.0 ('I can't explain') built on Dec 18 2011 18:12:03
Библиотека кодирования : libebml v1.2.3 + libmatroska v1.3.0
Видео
Идентификатор : 1
Формат : AVC
Формат/Информация : Advanced Video Codec
Профиль формата : [email protected]
Параметр CABAC формата : Да
Параметр ReFrames формата : 4 кадра
Идентификатор кодека : V_MPEG4/ISO/AVC
Продолжительность : 1 ч. 28 м.
Вид битрейта : Переменный
Максимальный битрейт : 32,4 Мбит/сек
Ширина : 1920 пикселей
Высота : 1080 пикселей
Соотношение сторон : 16:9
Режим частоты кадров : Постоянный
Частота кадров : 23,976 кадра/сек
Цветовое пространство : YUV
Субдискретизация насыщенности : 4:2:0
Битовая глубина : 8 бит
Тип развёртки : Прогрессивная
Язык : English
Default : Да
Forced : Нет
Аудио #1
Идентификатор : 2
Формат : AC-3
Формат/Информация : Audio Coding 3
Расширение режима : CM (complete main)
Параметр Endianness формата : Big
Идентификатор кодека : A_AC3
Продолжительность : 1 ч. 28 м.
Вид битрейта : Постоянный
Битрейт : 384 Кбит/сек
Каналы : 2 канала
Расположение каналов : Front: L R
Частота : 48,0 КГц
Битовая глубина : 16 бит
Метод сжатия : С потерями
Размер потока : 243 Мбайт (1%)
Заголовок : DVO НТВ+
Язык : Russian
Default : Да
Forced : Нет
Аудио #2
Идентификатор : 3
Формат : AC-3
Формат/Информация : Audio Coding 3
Расширение режима : CM (complete main)
Параметр Endianness формата : Big
Идентификатор кодека : A_AC3
Продолжительность : 1 ч. 28 м.
Вид битрейта : Постоянный
Битрейт : 384 Кбит/сек
Каналы : 2 канала
Расположение каналов : Front: L R
Частота : 48,0 КГц
Битовая глубина : 16 бит
Метод сжатия : С потерями
Размер потока : 243 Мбайт (1%)
Заголовок : MVO ОРТ
Язык : Russian
Default : Нет
Forced : Нет
Аудио #3
Идентификатор : 4
Формат : AC-3
Формат/Информация : Audio Coding 3
Расширение режима : CM (complete main)
Параметр Endianness формата : Big
Идентификатор кодека : A_AC3
Продолжительность : 1 ч. 28 м.
Вид битрейта : Постоянный
Битрейт : 384 Кбит/сек
Каналы : 2 канала
Расположение каналов : Front: L R
Частота : 48,0 КГц
Битовая глубина : 16 бит
Метод сжатия : С потерями
Размер потока : 243 Мбайт (1%)
Заголовок : DVO Премьер-видео
Язык : Russian
Default : Нет
Forced : Нет
Аудио #4
Идентификатор : 5
Формат : AC-3
Формат/Информация : Audio Coding 3
Расширение режима : CM (complete main)
Параметр Endianness формата : Big
Идентификатор кодека : A_AC3
Продолжительность : 1 ч. 28 м.
Вид битрейта : Постоянный
Битрейт : 384 Кбит/сек
Каналы : 2 канала
Расположение каналов : Front: L R
Частота : 48,0 КГц
Битовая глубина : 16 бит
Метод сжатия : С потерями
Размер потока : 243 Мбайт (1%)
Заголовок : DUB Киностудия им. Горького
Язык : Russian
Default : Нет
Forced : Нет
Аудио #5
Идентификатор : 6
Формат : AC-3
Формат/Информация : Audio Coding 3
Расширение режима : CM (complete main)
Параметр Endianness формата : Big
Идентификатор кодека : A_AC3
Продолжительность : 1 ч. 28 м.
Вид битрейта : Постоянный
Битрейт : 384 Кбит/сек
Каналы : 2 канала
Расположение каналов : Front: L R
Частота : 48,0 КГц
Битовая глубина : 16 бит
Метод сжатия : С потерями
Размер потока : 243 Мбайт (1%)
Заголовок : AVO Живов
Язык : Russian
Default : Нет
Forced : Нет
Аудио #6
Идентификатор : 7
Формат : AC-3
Формат/Информация : Audio Coding 3
Расширение режима : CM (complete main)
Параметр Endianness формата : Big
Идентификатор кодека : A_AC3
Продолжительность : 1 ч. 28 м.
Вид битрейта : Постоянный
Битрейт : 384 Кбит/сек
Каналы : 2 канала
Расположение каналов : Front: L R
Частота : 48,0 КГц
Битовая глубина : 16 бит
Метод сжатия : С потерями
Размер потока : 243 Мбайт (1%)
Заголовок : AVO Михалев
Язык : Russian
Default : Нет
Forced : Нет
Аудио #7
Идентификатор : 8
Формат : AC-3
Формат/Информация : Audio Coding 3
Расширение режима : CM (complete main)
Параметр Endianness формата : Big
Идентификатор кодека : A_AC3
Продолжительность : 1 ч. 28 м.
Вид битрейта : Постоянный
Битрейт : 384 Кбит/сек
Каналы : 2 канала
Расположение каналов : Front: L R
Частота : 48,0 КГц
Битовая глубина : 16 бит
Метод сжатия : С потерями
Размер потока : 243 Мбайт (1%)
Заголовок : AVO Горчаков
Язык : Russian
Default : Нет
Forced : Нет
Аудио #8
Идентификатор : 9
Формат : AC-3
Формат/Информация : Audio Coding 3
Расширение режима : CM (complete main)
Параметр Endianness формата : Big
Идентификатор кодека : A_AC3
Продолжительность : 1 ч. 28 м.
Вид битрейта : Постоянный
Битрейт : 384 Кбит/сек
Каналы : 2 канала
Расположение каналов : Front: L R
Частота : 48,0 КГц
Битовая глубина : 16 бит
Метод сжатия : С потерями
Размер потока : 243 Мбайт (1%)
Заголовок : DVO
Язык : Ukrainian
Default : Нет
Forced : Нет
Аудио #9
Идентификатор : 10
Формат : DTS
Формат/Информация : Digital Theater Systems
Профиль формата : MA / Core
Режим : 16
Параметр Endianness формата : Big
Идентификатор кодека : A_DTS
Продолжительность : 1 ч. 28 м.
Вид битрейта : Переменный
Битрейт : Неизвестно / 1509 Кбит/сек
Каналы : 4 канала
Расположение каналов : Front: L C R, Back: C / Front: L C R, Side: C
Частота : 48,0 КГц
Битовая глубина : 24 бит
Метод сжатия : Без потерь / Lossy
Заголовок : Lossless
Язык : English
Default : Нет
Forced : Нет
Текст #1
Идентификатор : 11
Формат : UTF-8
Идентификатор кодека : S_TEXT/UTF8
Идентификатор кодека/Информация : UTF-8 Plain Text
Язык : Russian
Default : Нет
Forced : Нет
Текст #2
Идентификатор : 12
Формат : UTF-8
Идентификатор кодека : S_TEXT/UTF8
Идентификатор кодека/Информация : UTF-8 Plain Text
Язык : Ukrainian
Default : Нет
Forced : Нет
Текст #3
Идентификатор : 13
Формат : PGS
Режим смешивания : zlib
Идентификатор кодека : S_HDMV/PGS
Идентификатор кодека/Информация : The same subtitle format used on BDs/HD-DVDs
Язык : English
Default : Нет
Forced : Нет
Меню
00:00:00.000 : en:Chapter 00
00:04:57.797 : en:Chapter 01
00:06:51.160 : en:Chapter 02
00:09:33.406 : en:Chapter 03
00:18:39.868 : en:Chapter 04
00:21:46.888 : en:Chapter 05
00:26:33.216 : en:Chapter 06
00:35:22.203 : en:Chapter 07
00:43:25.144 : en:Chapter 08
00:51:25.123 : en:Chapter 09
00:52:48.874 : en:Chapter 10
01:00:13.109 : en:Chapter 11
01:06:49.255 : en:Chapter 12
01:12:16.498 : en:Chapter 13
01:15:38.575 : en:Chapter 14
01:20:19.731 : en:Chapter 15
01:23:08.274 : en:Chapter 16
01:23:56.990 : en:Chapter 17
-Скриншоты:
-Время раздачи: С 8:00 до 22:00 до 5 скачавших

[Цитировать]



Показать сообщения:    

Текущее время: 05-Дек 01:25

Часовой пояс: UTC + 3


Вы не можете начинать темы
Вы не можете отвечать на сообщения
Вы не можете редактировать свои сообщения
Вы не можете удалять свои сообщения
Вы не можете голосовать в опросах
Вы не можете прикреплять файлы к сообщениям
Вы не можете скачивать файлы

!ВНИМАНИЕ!
Сайт не предоставляет электронные версии произведений, а занимается лишь коллекционированием и каталогизацией ссылок, присылаемых и публикуемых на форуме нашими читателями. Если вы являетесь правообладателем какого-либо представленного материала и не желаете, чтобы ссылка на него находилась в нашем каталоге, свяжитесь с нами, и мы незамедлительно удалим ее. Файлы для обмена на трекере предоставлены пользователями сайта, и администрация не несет ответственности за их содержание. Просьба не заливать файлы, защищенные авторскими правами, а также файлы нелегального содержания!