[ Сегодня идет свободное скачивание без начисления Download ]


Статистика раздачи
Нет
 
   
 
Top  
 
 
-Тачка №19 / Vehicle 19 (2013) BDRip- Русское название: Тачка №19
Оригинальное название: Vehicle 19
Год выпуска: 2013
Производство: США, ЮАР
Жанр: боевик, триллер, криминал, драма
Перевод: Двуголосый закадровый, любительский
Субтитры: Вшитые отключаемые
Язык субтитров: Английский, румынский
Дата мировой премьеры: 7 февраля 2013
Дата российской премьеры: 2 мая 2013, «Кинопром»
Дата выхода DVD релиза: 13 июня 2013, «CP Дистрибуция»
Дата выхода Blu-Ray релиза: 13 июня 2013, «CP Дистрибуция»
Режиссер: Мукунда Майкл Дьюил
Продюсер: Райан Хайдариан, Питер Сафран, Уэйн Марк Годфри
Актеры: Пол Уокер, Наима МакЛин, Ги Де Виллерс, Лэйла Хайдариан, Тшепо Масеко, Андриан Мазив, Велиль Нзуза, Мангалисо Нгема, Эрнест Кубайи, Элиз Ван Никерк
Описание фильма:
Что делать, если из багажника арендованной в незнакомом городе тачки в салон вываливается связанная девушка? Сдать бедолагу в ближайший полицейский участок? Спасибо, Кэп, но не всё так просто! Эта девушка — важный свидетель в большом заговоре, и её уже приговорили к смерти… На хвосте висят все копы города, выход один — вдавить педаль газа в пол и считать дырки от пуль и разбитые полицейские машины! Гонки на выживание начинаются!

Продолжительность: 01:25:10
Качество видео: BDRip 1080p [HDWinG]
Видеокодек: MPEG-4 AVC/H.264
Битрейт видео: ~13.4 Mbps
Размер кадра: 1920х800
Аудио 1: Русский: AC3, 6 ch, 448 Кбит/с [Двуголосый закадровый]
Аудио 2: Английский: DTS, 6 ch, 1510 Кбит/c [Оригинальный]

MediaInfo:

General
Unique ID : 191015234531966256553245744948934768462 (0x8FB4322D2EA817B9B2F64155179E774E)
Complete name : D:\Video\Movies\Vehicle.19.2013.BDRip.1080p.mkv
Format : Matroska
Format version : Version 2
File size : 9.34 GiB
Duration : 1h 25mn
Overall bit rate : 15.7 Mbps
Encoded date : UTC 2013-05-12 09:19:21
Writing application : mkvmerge v4.9.1 ('Ich will') built on Jul 11 2011 23:53:15
Writing library : libebml v1.2.1 + libmatroska v1.1.1
Video
ID : 1
Format : AVC
Format/Info : Advanced Video Codec
Format profile : High@L4.1
Format settings, CABAC : Yes
Format settings, ReFrames : 5 frames
Codec ID : V_MPEG4/ISO/AVC
Duration : 1h 25mn
Bit rate : 13.4 Mbps
Width : 1 920 pixels
Height : 800 pixels
Display aspect ratio : 2.40:1
Frame rate mode : Constant
Frame rate : 23.976 fps
Color space : YUV
Chroma subsampling : 4:2:0
Bit depth : 8 bits
Scan type : Progressive
Bits/(Pixel*Frame) : 0.364
Stream size : 7.99 GiB (86%)
Writing library : x264 core 130 r2274+704+40 24c804d tMod+MixAQ [8-bit@4:2:0 X86_64]
Encoding settings : cabac=1 / ref=5 / deblock=1:-3:-3 / analyse=0x3:0x113 / me=umh / subme=11 / psy=1 / fade_compensate=0.00 / psy_rd=1.05:0.00 / mixed_ref=1 / me_range=48 / chroma_me=1 / trellis=2 / 8x8dct=1 / cqm=0 / deadzone=21,11 / fast_pskip=0 / chroma_qp_offset=-2 / threads=36 / lookahead_threads=6 / sliced_threads=0 / nr=0 / decimate=0 / interlaced=0 / bluray_compat=0 / constrained_intra=0 / fgo=0 / bframes=8 / b_pyramid=2 / b_adapt=2 / b_bias=0 / direct=3 / weightb=1 / open_gop=0 / weightp=2 / keyint=240 / keyint_min=24 / scenecut=40 / intra_refresh=0 / rc=crf / mbtree=0 / crf=17.2000 / qcomp=0.72 / qpmin=0 / qpmax=69 / qpstep=4 / ip_ratio=1.25 / pb_ratio=1.20 / aq=4:0.80 / aq-sensitivity=10.00 / aq-ifactor=1.00 / aq-pfactor=1.00 / aq-bfactor=1.00 / aq2=0
Language : English
Default : Yes
Forced : No
Audio #1
ID : 2
Format : AC-3
Format/Info : Audio Coding 3
Mode extension : CM (complete main)
Format settings, Endianness : Big
Codec ID : A_AC3
Duration : 1h 25mn
Bit rate mode : Constant
Bit rate : 448 Kbps
Channel(s) : 6 channels
Channel positions : Front: L C R, Side: L R, LFE
Sampling rate : 48.0 KHz
Bit depth : 16 bits
Compression mode : Lossy
Stream size : 273 MiB (3%)
Title : DD 5.1 @ 448 kbps
Language : Russian
Default : No
Forced : No
Audio #2
ID : 3
Format : DTS
Format/Info : Digital Theater Systems
Mode : 16
Format settings, Endianness : Big
Codec ID : A_DTS
Duration : 1h 25mn
Bit rate mode : Constant
Bit rate : 1 509 Kbps
Channel(s) : 6 channels
Channel positions : Front: L C R, Side: L R, LFE
Sampling rate : 48.0 KHz
Bit depth : 16 bits
Compression mode : Lossy
Stream size : 919 MiB (10%)
Title : DTS 5.1 @ 1536 kbps
Language : English
Default : No
Forced : No
Text #1
ID : 4
Format : UTF-8
Codec ID : S_TEXT/UTF8
Codec ID/Info : UTF-8 Plain Text
Language : Romanian
Default : Yes
Forced : No
Text #2
ID : 5
Format : UTF-8
Codec ID : S_TEXT/UTF8
Codec ID/Info : UTF-8 Plain Text
Language : English
Default : No
Forced : No
Скриншоты:

Время раздачи: 24/7 - круглосуточно

[Цитировать]

Топик был перенесен из форума Новинки кинопроката (HD Video) в форум Зарубежное кино (HD Video)
Bootch



Показать сообщения:    

Текущее время: 10-Дек 02:18

Часовой пояс: UTC + 3


Вы не можете начинать темы
Вы не можете отвечать на сообщения
Вы не можете редактировать свои сообщения
Вы не можете удалять свои сообщения
Вы не можете голосовать в опросах
Вы не можете прикреплять файлы к сообщениям
Вы не можете скачивать файлы

!ВНИМАНИЕ!
Сайт не предоставляет электронные версии произведений, а занимается лишь коллекционированием и каталогизацией ссылок, присылаемых и публикуемых на форуме нашими читателями. Если вы являетесь правообладателем какого-либо представленного материала и не желаете, чтобы ссылка на него находилась в нашем каталоге, свяжитесь с нами, и мы незамедлительно удалим ее. Файлы для обмена на трекере предоставлены пользователями сайта, и администрация не несет ответственности за их содержание. Просьба не заливать файлы, защищенные авторскими правами, а также файлы нелегального содержания!