[ Сегодня идет свободное скачивание без начисления Download ]


Статистика раздачи
Нет
 
   
 
Top  
 
 
-Воры / The Thieves (2012) BDRip-
Русское название: Воры
Оригинальное название: The Thieves
Год выпуска: 2012
Страна: Южная Корея
Жанр: Криминал, Триллер--Описание фильма:
Интернациональная команда воров экстра-класса планирует грандиозное ограбление в Макао. Все участники банды — опытные профессионалы, бывали в переделках и способны эффективно работать в самых опасных и стрессовых условиях. Однако, несмотря на то, что все роли в безупречном плане преступления четко определены, многие из участников расклада совсем не собираются довольствоваться своей долей и коварно намереваются умыкнуть весь куш. К тому же один из них — полицейский «под прикрытием»…--Режиссер: Чхве Дон Хун
Актеры: Ким Юн Сок, И Чон Чжэ, О Дар Су, Саймон Ям, Чон Чи Хён, Ким Хэ Сук, Анжелика Ли, Ким Хё Су
Продолжительность: 02:15:53
Перевод: Двухголосый закадровый (любительсий) - Трина Дубовицкая & Aleksey VedMed
Язык субтитров: Русский
Вид субтитров: Вшитые отключаемые
Местами присутствуют вшитые (неотключаемые) корейские субтитры!

Дата мировой премьеры: 25 июля 2012
Дата российской премьеры: 7 февраля 2013, «Кино без границ»
Видеокодек: MPEG-4 AVC/H.264
Битрейт видео: ~9935 Кбит/сек
Размер кадра: 1920x816
Качество видео: BDRip 1080p
Контейнер: MKV
Аудиокодек: DTS
Аудио #1: Русский ( DTS / 5.1 / 48 kHz / 755 kbps ) - Двухголосый (любительсий)
Аудио #2: Корейский ( DTS / 5.1 / 48 kHz / 1510 kbps )
-

MediaInfo

Общее
Уникальный идентификатор : 230485251964655684021190087380724868640 (0xAD65D8481432D06681177D3A1217E620)
Полное имя : Воры _ The Thieves (2012) BDRip [1080p].mkv
Формат : Matroska
Версия формата : Version 2
Размер файла : 11,6 Гбайт
Продолжительность : 2 ч. 15 м.
Общий поток : 12,2 Мбит/сек
Дата кодирования : UTC 2013-05-03 13:33:30
Программа кодирования : mkvmerge v4.0.0 ('The Stars were mine') сборка от Jun 6 2010 16:18:42
Библиотека кодирования : libebml v1.0.0 + libmatroska v1.0.0
Видео
Идентификатор : 1
Формат : AVC
Формат/Информация : Advanced Video Codec
Профиль формата : [email protected]
Параметр CABAC формата : Да
Параметр ReFrames формата : 5 кадров
Идентификатор кодека : V_MPEG4/ISO/AVC
Битрейт : 9935 Кбит/сек
Ширина : 1920 пикселей
Высота : 816 пикселей
Соотношение сторон : 2,35:1
Режим частоты кадров : Переменный
Частота кадров в оригинале : 24,000 кадра/сек
Цветовое пространство : YUV
Субдискретизация насыщенности : 4:2:0
Битовая глубина : 8 бит
Тип развёртки : Прогрессивная
Бит/(Пиксели*Кадры) : 0.264
Заголовок : The.Thieves.2012
Библиотека кодирования : x264 core 125 r2208 d9d2288
Настройки программы : cabac=1 / ref=5 / deblock=1:-3:-3 / analyse=0x3:0x113 / me=umh / subme=10 / psy=1 / psy_rd=1.00:0.05 / mixed_ref=1 / me_range=32 / chroma_me=1 / trellis=2 / 8x8dct=1 / cqm=0 / deadzone=21,11 / fast_pskip=0 / chroma_qp_offset=-2 / threads=8 / lookahead_threads=1 / sliced_threads=0 / nr=0 / decimate=1 / interlaced=0 / bluray_compat=0 / constrained_intra=0 / bframes=5 / b_pyramid=2 / b_adapt=2 / b_bias=0 / direct=3 / weightb=1 / open_gop=0 / weightp=2 / keyint=250 / keyint_min=24 / scenecut=40 / intra_refresh=0 / rc=2pass / mbtree=0 / bitrate=9935 / ratetol=1.0 / qcomp=0.70 / qpmin=0 / qpmax=69 / qpstep=4 / cplxblur=20.0 / qblur=0.5 / ip_ratio=1.40 / pb_ratio=1.30 / aq=2:1.00
Язык : Korean
Default : Нет
Forced : Нет
Аудио #1
Идентификатор : 2
Формат : DTS
Формат/Информация : Digital Theater Systems
Идентификатор кодека : A_DTS
Продолжительность : 2 ч. 15 м.
Вид битрейта : Постоянный
Битрейт : 755 Кбит/сек
Каналы : 6 каналов
Расположение каналов : Front: L C R, Side: L R, LFE
Частота : 48,0 КГц
Битовая глубина : 16 бит
Метод сжатия : С потерями
Задержка видео : 11 мс.
Размер потока : 733 Мбайт (6%)
Заголовок : Russian 5.1 DTS [AniDUB]
Язык : Russian
Default : Нет
Forced : Нет
Аудио #2
Идентификатор : 3
Формат : DTS
Формат/Информация : Digital Theater Systems
Идентификатор кодека : A_DTS
Продолжительность : 2 ч. 15 м.
Вид битрейта : Постоянный
Битрейт : 1510 Кбит/сек
Каналы : 6 каналов
Расположение каналов : Front: L C R, Side: L R, LFE
Частота : 48,0 КГц
Битовая глубина : 24 бит
Метод сжатия : С потерями
Задержка видео : 11 мс.
Размер потока : 1,43 Гбайт (12%)
Заголовок : Korean 5.1 DTS
Язык : Korean
Default : Нет
Forced : Нет
Текст
Идентификатор : 4
Формат : UTF-8
Идентификатор кодека : S_TEXT/UTF8
Идентификатор кодека/Информация : UTF-8 Plain Text
Язык : Russian
Default : Нет
Forced : Нет
-Скриншоты:



Время раздачи: с 10:00 до 23:00 ежедневно

[Цитировать]



Показать сообщения:    

Текущее время: 06-Дек 21:01

Часовой пояс: UTC + 3


Вы не можете начинать темы
Вы не можете отвечать на сообщения
Вы не можете редактировать свои сообщения
Вы не можете удалять свои сообщения
Вы не можете голосовать в опросах
Вы не можете прикреплять файлы к сообщениям
Вы не можете скачивать файлы

!ВНИМАНИЕ!
Сайт не предоставляет электронные версии произведений, а занимается лишь коллекционированием и каталогизацией ссылок, присылаемых и публикуемых на форуме нашими читателями. Если вы являетесь правообладателем какого-либо представленного материала и не желаете, чтобы ссылка на него находилась в нашем каталоге, свяжитесь с нами, и мы незамедлительно удалим ее. Файлы для обмена на трекере предоставлены пользователями сайта, и администрация не несет ответственности за их содержание. Просьба не заливать файлы, защищенные авторскими правами, а также файлы нелегального содержания!