[ Сегодня идет свободное скачивание без начисления Download ]


Статистика раздачи
Нет
 
   
 
Top  
 
 
-Однажды в Китае 2 / Once Upon A Time In China II (1992) BDRemux [1080p]- Русское название: Однажды в Китае 2
Оригинальное название: Once Upon A Time In China II
Год выпуска: 1992
Жанр: Боевик, Приключения, восточные единоборства
Описание фильма:
Почти столь же хорош, как и первый фильм. 1895 год, трудное время для Цинской империи. В Гуанчжоу, во время международной конференции врачей, Хуан Фэйхун становится другом Сунь Ятсена. Сунь Ятсен готовится поднять восстание и свергнуть монархию, но планы революционеров становятся известны властям. Тем временем в городе начинаются беспорядки, устроенные Обществом Белого Лотоса. Английский консул отказывается выдать укрывшегося на территории консульства Сунь Ятсена, и власти позволяют Обществу Белого Лотоса напасть на "заморских дьяволов". В ответ Хуан Фэйхун устраивает поединок с главарем общества и убивает его. Тем временем Сунь Ятсен с товарищами намерен скрыться из города, но в городе имеется спрятанный список с именами вождей революции, который не должен попасть в руки властей. Хуан Фэйхун помогает новым друзьям доставить список на корабль, и вынужден сражаться против официальных чиновников. Финальный бой является одной из лучших когда-либо экранизировавшихся боевых сцен. Интересно, что противником Ли Ляньцзэ в этой сцене является Donnie Yen - актёр, сыгравший отца Хуан Фэйхуна в фильме "Железная обезьяна".
Режиссер: Цуй Харк
Актеры: Джет Ли,Розамунд Кван,Донни Ен,Сиу Чунг Мок,Дэвид Чианг,Синь Синь Сюн,Тьелинь Чжан,Пол Фонорофф,Сиу Ва Чан,Хо Чи-Мун
Продолжительность: 1:52:11
Перевод: Профессиональный двуголосый закадровый, MVO
Язык субтитров: Английский,Русский,Китайский
Вид субтитров: Вшитые подключаемые

Дата мировой премьеры: 16 апреля 1992
Видеокодек: MPEG-4 AVC/H.264
Битрейт видео: ~27700 kb/s
Размер кадра: 1920х1080
Качество видео: BDRemux 1080p
Аудио 1: Китайский AC3 , 6 ch, 640 Кбит/с, 48,0 КГц
Аудио 2: Русский AC3, 6 ch, 448 Кбит/с, 48,0 КГц
Сэмпл: Ссылка

Дополнительно

Исходник Once Upon A Time In China 2' (1992) Blu-Ray AVC 1080p.[Hong Kong]
Видео не пережималось оставлено 1х1,убран Китайский DOLBY TRUE HD 7.1 | DD 6.1
Добавлена Русская озвучка и Русские субтитры

MediaInfo

Общее
Уникальный идентификатор : 179425333348957589028030503372290895088 (0x86FC0FEE29F1EC47B681672CCFE9ACF0)
Полное имя : Однажды в Китае 2_Once Upon A Time In China II.1992.BDRemux.[1080p].mkv
Формат : Matroska
Версия формата : Version 4 / Version 2
Размер файла : 23,1 Гбайт
Продолжительность : 1 ч. 52 м.
Режим общего битрейта : Переменный
Общий поток : 29,4 Мбит/сек
Название фильма : Однажды в Китае 2 / Once Upon A Time In China II.Illusivi
Дата кодирования : UTC 2013-04-23 07:25:07
Программа кодирования : mkvmerge v6.1.0 ('Old Devil') built on Mar 2 2013 14:32:37
Библиотека кодирования : libebml v1.3.0 + libmatroska v1.4.0
Attachment : Yes
Видео
Идентификатор : 1
Формат : AVC
Формат/Информация : Advanced Video Codec
Профиль формата : [email protected]
Параметр CABAC формата : Да
Параметр ReFrames формата : 4 кадра
Параметр GOP формата : M=3, N=24
Идентификатор кодека : V_MPEG4/ISO/AVC
Продолжительность : 1 ч. 52 м.
Вид битрейта : Переменный
Битрейт : 27,7 Мбит/сек
Максимальный битрейт : 35,0 Мбит/сек
Ширина : 1920 пикселей
Высота : 1080 пикселей
Соотношение сторон : 16:9
Частота кадров : 23,976 кадра/сек
Стандарт вещания : NTSC
Цветовое пространство : YUV
Субдискретизация насыщенности : 4:2:0
Битовая глубина : 8 бит
Тип развёртки : Прогрессивная
Бит/(Пиксели*Кадры) : 0.558
Размер потока : 21,7 Гбайт (94%)
Default : Да
Forced : Нет
Основные цвета : BT.709-5, BT.1361, IEC 61966-2-4, SMPTE RP177
Характеристики трансфера : BT.709-5, BT.1361
Коэффициенты матрицы : BT.709-5, BT.1361, IEC 61966-2-4 709, SMPTE RP177
Аудио #1
Идентификатор : 2
Формат : AC-3
Формат/Информация : Audio Coding 3
Расширение режима : CM (complete main)
Параметр Endianness формата : Big
Идентификатор кодека : A_AC3
Продолжительность : 1 ч. 52 м.
Вид битрейта : Постоянный
Битрейт : 640 Кбит/сек
Каналы : 6 каналов
Расположение каналов : Front: L C R, Side: L R, LFE
Частота : 48,0 КГц
Битовая глубина : 16 бит
Метод сжатия : С потерями
Размер потока : 514 Мбайт (2%)
Язык : Chinese
Default : Нет
Forced : Нет
Аудио #2
Идентификатор : 3
Формат : AC-3
Формат/Информация : Audio Coding 3
Расширение режима : CM (complete main)
Параметр Endianness формата : Big
Идентификатор кодека : A_AC3
Продолжительность : 1 ч. 52 м.
Вид битрейта : Постоянный
Битрейт : 448 Кбит/сек
Каналы : 6 каналов
Расположение каналов : Front: L C R, Side: L R, LFE
Частота : 48,0 КГц
Битовая глубина : 16 бит
Метод сжатия : С потерями
Размер потока : 360 Мбайт (2%)
Заголовок : AC3; 448 Kbps; CBR; 6 ch; MVO
Язык : Russian
Default : Да
Forced : Нет
Текст #1
Идентификатор : 4
Формат : PGS
Режим смешивания : zlib
Идентификатор кодека : S_HDMV/PGS
Идентификатор кодека/Информация : The same subtitle format used on BDs/HD-DVDs
Язык : English
Default : Нет
Forced : Нет
Текст #2
Идентификатор : 5
Формат : UTF-8
Идентификатор кодека : S_TEXT/UTF8
Идентификатор кодека/Информация : UTF-8 Plain Text
Язык : Russian
Default : Нет
Forced : Нет
Текст #3
Идентификатор : 6
Формат : PGS
Режим смешивания : zlib
Идентификатор кодека : S_HDMV/PGS
Идентификатор кодека/Информация : The same subtitle format used on BDs/HD-DVDs
Язык : Chinese
Default : Нет
Forced : Нет
Меню
00:00:00.000 : en:Chapter 0
00:07:53.973 : en:Chapter 0
00:14:42.798 : en:Chapter 0
00:21:43.802 : en:Chapter 0
00:24:47.360 : en:Chapter 0
00:30:27.116 : en:Chapter 0
00:35:38.928 : en:Chapter 0
00:40:12.243 : en:Chapter 0
00:45:23.053 : en:Chapter 0
00:50:30.277 : en:Chapter 0
00:53:29.039 : en:Chapter 0
00:59:02.747 : en:Chapter 0
01:03:10.912 : en:Chapter 0
01:09:43.971 : en:Chapter 0
01:16:42.055 : en:Chapter 0
01:22:16.222 : en:Chapter 0
01:27:10.558 : en:Chapter 0
01:35:17.128 : en:Chapter 0
01:41:31.752 : en:Chapter 0
01:48:49.689 : en:Chapter 0
01:52:11.057 : en:Chapter 0
Скриншоты: Время раздачи: 24х7 до 5 скачавших далее по возможности

[Цитировать]



Показать сообщения:    

Текущее время: 04-Дек 09:13

Часовой пояс: UTC + 3


Вы не можете начинать темы
Вы не можете отвечать на сообщения
Вы не можете редактировать свои сообщения
Вы не можете удалять свои сообщения
Вы не можете голосовать в опросах
Вы не можете прикреплять файлы к сообщениям
Вы не можете скачивать файлы

!ВНИМАНИЕ!
Сайт не предоставляет электронные версии произведений, а занимается лишь коллекционированием и каталогизацией ссылок, присылаемых и публикуемых на форуме нашими читателями. Если вы являетесь правообладателем какого-либо представленного материала и не желаете, чтобы ссылка на него находилась в нашем каталоге, свяжитесь с нами, и мы незамедлительно удалим ее. Файлы для обмена на трекере предоставлены пользователями сайта, и администрация не несет ответственности за их содержание. Просьба не заливать файлы, защищенные авторскими правами, а также файлы нелегального содержания!