[ Сегодня идет свободное скачивание без начисления Download ]


Статистика раздачи
Нет
 
   
 
Top  
 
 
-Однажды в Китае 3 / Once Upon A Time In China 3 (1993) BDRemux [1080p]- Русское название: Однажды в Китае 3
Оригинальное название: Once Upon A Time In China 3
Год выпуска: 1993
Жанр: Боевик, Приключения, Восточные единоборства
Описание фильма:
Конец прошлого столетия. Китайцы пытаются бороться всеми доступными им средствами с расширением американского влияния, решительно восстают против наглого грабежа и похищения людей.Для участия в турнире мастеров восточных единоборств, знатоков стиля «Танцующий лев», в Пекин приезжают Вон Фэй-хун, его закадычный приятель-напарник Чун и юная Йе, кузина Фэй-хуна. Пока участники турнира готовятся к поединкам, Йе завязывает романтические отношения с русским дипломатом Тумановским…
Режиссер: Цуй Харк
Актеры: Джет Ли,Гэ Цуньчжуан,Розамунд Кван,Шун Лау,Сиу Чунг Мок,Джон Уэйкфилд,Синь Синь Сюн,Чуньчжон Чжан
Продолжительность: 1:51:12
Перевод: Профессиональный двуголосый закадровый DVO (HTB+)
Язык субтитров: Китайский,Английский
Вид субтитров: Вшитые подключаемые

Дата мировой премьеры: 14 января 1993
Видеокодек: MPEG-4 AVC/H.264
Битрейт видео: ~21800 kb/s
Размер кадра: 1920х1080
Качество видео: BDRemux 1080p
Аудио 1: Китайский AC3 , 6 ch, 640 Кбит/с, 48,0 КГц
Аудио 2: Русский AC3, 2 ch, 192 Кбит/с, 48,0 КГц
Сэмпл: Ссылка

Дополнительно

Исходник Once Upon A Time In China 3' (1993) Blu-Ray 1080p MPEG-4 AVC[Hong Kong]
Видео не пережималось оставлено 1х1,убран Китайский DOLBY TRUE HD 7.1 | DD 6.1
Добавлена Русская озвучка

MediaInfo

Общее
Уникальный идентификатор : 224905527846120506471816044402354656717 (0xA9333AA4930BFBC6A0C86BF05C8795CD)
Полное имя : Однажды в Китае 3_Once Upon A Time In China III.1993.BDRemux[1080p].mkv
Формат : Matroska
Версия формата : Version 4 / Version 2
Размер файла : 17,9 Гбайт
Продолжительность : 1 ч. 51 м.
Режим общего битрейта : Переменный
Общий поток : 23,1 Мбит/сек
Название фильма : Однажды в Китае 3_Once Upon A Time In China III.Illusivi
Дата кодирования : UTC 2013-04-23 00:31:41
Программа кодирования : mkvmerge v6.1.0 ('Old Devil') built on Mar 2 2013 14:32:37
Библиотека кодирования : libebml v1.3.0 + libmatroska v1.4.0
Видео
Идентификатор : 1
Формат : AVC
Формат/Информация : Advanced Video Codec
Профиль формата : [email protected]
Параметр CABAC формата : Да
Параметр ReFrames формата : 4 кадра
Параметр GOP формата : M=3, N=24
Идентификатор кодека : V_MPEG4/ISO/AVC
Продолжительность : 1 ч. 51 м.
Вид битрейта : Переменный
Битрейт : 21,8 Мбит/сек
Максимальный битрейт : 28,0 Мбит/сек
Ширина : 1920 пикселей
Высота : 1080 пикселей
Соотношение сторон : 16:9
Частота кадров : 23,976 кадра/сек
Стандарт вещания : NTSC
Цветовое пространство : YUV
Субдискретизация насыщенности : 4:2:0
Битовая глубина : 8 бит
Тип развёртки : Прогрессивная
Бит/(Пиксели*Кадры) : 0.438
Размер потока : 16,9 Гбайт (94%)
Default : Да
Forced : Нет
Основные цвета : BT.709-5, BT.1361, IEC 61966-2-4, SMPTE RP177
Характеристики трансфера : BT.709-5, BT.1361
Коэффициенты матрицы : BT.709-5, BT.1361, IEC 61966-2-4 709, SMPTE RP177
Аудио #1
Идентификатор : 2
Формат : AC-3
Формат/Информация : Audio Coding 3
Расширение режима : CM (complete main)
Параметр Endianness формата : Big
Идентификатор кодека : A_AC3
Продолжительность : 1 ч. 51 м.
Вид битрейта : Постоянный
Битрейт : 640 Кбит/сек
Каналы : 6 каналов
Расположение каналов : Front: L C R, Side: L R, LFE
Частота : 48,0 КГц
Битовая глубина : 16 бит
Метод сжатия : С потерями
Размер потока : 509 Мбайт (3%)
Язык : Chinese
Default : Нет
Forced : Нет
Аудио #2
Идентификатор : 3
Формат : AC-3
Формат/Информация : Audio Coding 3
Расширение режима : CM (complete main)
Параметр Endianness формата : Big
Идентификатор кодека : A_AC3
Продолжительность : 1 ч. 51 м.
Вид битрейта : Постоянный
Битрейт : 192 Кбит/сек
Каналы : 2 канала
Расположение каналов : Front: L R
Частота : 48,0 КГц
Битовая глубина : 16 бит
Метод сжатия : С потерями
Размер потока : 153 Мбайт (1%)
Язык : Russian
Default : Да
Forced : Нет
Текст #1
Идентификатор : 4
Формат : PGS
Режим смешивания : zlib
Идентификатор кодека : S_HDMV/PGS
Идентификатор кодека/Информация : The same subtitle format used on BDs/HD-DVDs
Язык : Chinese
Default : Нет
Forced : Нет
Текст #2
Идентификатор : 5
Формат : PGS
Режим смешивания : zlib
Идентификатор кодека : S_HDMV/PGS
Идентификатор кодека/Информация : The same subtitle format used on BDs/HD-DVDs
Язык : English
Default : Нет
Forced : Нет
Меню
00:00:00.000 : en:Chapter 0
00:06:32.850 : en:Chapter 0
00:10:55.529 : en:Chapter 0
00:16:57.474 : en:Chapter 0
00:23:06.885 : en:Chapter 0
00:28:43.888 : en:Chapter 0
00:30:43.633 : en:Chapter 0
00:37:27.495 : en:Chapter 0
00:42:17.034 : en:Chapter 0
00:47:47.531 : en:Chapter 0
00:55:55.894 : en:Chapter 0
00:59:20.682 : en:Chapter 0
01:06:04.794 : en:Chapter 0
01:11:11.433 : en:Chapter 0
01:16:22.995 : en:Chapter 0
01:23:01.685 : en:Chapter 0
01:27:45.301 : en:Chapter 0
01:34:25.743 : en:Chapter 0
01:42:39.319 : en:Chapter 0
01:47:03.500 : en:Chapter 0
01:51:11.539 : en:Chapter 0
Скриншоты: Время раздачи: 24х7 до 5 скачавших далее по возможности

[Цитировать]



Показать сообщения:    

Текущее время: 05-Дек 15:37

Часовой пояс: UTC + 3


Вы не можете начинать темы
Вы не можете отвечать на сообщения
Вы не можете редактировать свои сообщения
Вы не можете удалять свои сообщения
Вы не можете голосовать в опросах
Вы не можете прикреплять файлы к сообщениям
Вы не можете скачивать файлы

!ВНИМАНИЕ!
Сайт не предоставляет электронные версии произведений, а занимается лишь коллекционированием и каталогизацией ссылок, присылаемых и публикуемых на форуме нашими читателями. Если вы являетесь правообладателем какого-либо представленного материала и не желаете, чтобы ссылка на него находилась в нашем каталоге, свяжитесь с нами, и мы незамедлительно удалим ее. Файлы для обмена на трекере предоставлены пользователями сайта, и администрация не несет ответственности за их содержание. Просьба не заливать файлы, защищенные авторскими правами, а также файлы нелегального содержания!