[ Сегодня идет свободное скачивание без начисления Download ]


Статистика раздачи
Нет
 
   
 
Top  
 
 
Хатико: Самый верный друг / Hachiko: A Dog's Story«Подлинная история веры, преданности и вечной любви»

Год выпуска: 2009
Страна: США, Великобритания
Производство: Grand Army Entertainment
Жанр: Драма, Семейный
Режиссер: Лассе Халльстрём
В ролях: Ричард Гир, Сара Ремер, Джоан Аллен, Кэри-Хироюки Тагава, Джейсон Александр, Эрик Авари, Роберт Капрон, Форест, Давиния МакФэдден, Тора Халлстрем...
Перевод: Профессиональный (полное дублирование) + оригинал
Субтитры: Русские, Английские
Описание: Фильм поставлен по известной правдивой истории, которая произошла в Японии в 20-х годах. Пес каждый день провожал и встречал своего хозяина на вокзале. Потом хозяин неожиданно умер, но пес в течение 9 лет КАЖДЫЙ день в 5 часов вечера приходил на вокзал встречать хозяина и ждал его до последнего поезда. Потом японцы поставили ему памятник на том месте, где он постоянно ждал хозяина.
[kp]387556[/kp] [imdb]tt1028532[/imdb]
Доп. информация: Хатико был воздвигнут памятник, на открытии которого он лично присутствовал. После его смерти, ввиду широкого резонанса, в стране был объявлен день траура. Во время Второй мировой войны памятник был уничтожен — металл памятника пошёл на военные нужды. Но Япония не забыла пса — и после окончания войны, в августе 1948 года, памятник был восстановлен. Сегодня статуя Хатико у станции Сибуя является местом встречи влюблённых, а сам образ пса в Японии стал примером беззаветной любви и верности.
Качество: BDRip 1080p
Продолжительность: 01:33:14
Формат: MKV
Видео кодек: [email protected]
Аудио кодек: DTS
Видео: 1920x1040 at 23.976 fps, ~9167 kbps avg, 0.186 bit/pixel
Аудио: 48 kHz, DTS, 3/2 (L,C,R,l,r) + LFE ch, ~1536.00 kbps avg |Дубляж|
Аудио #2: 48 kHz, DTS, 3/2 (L,C,R,l,r) + LFE ch, ~1536.00 kbps avg |Original|
Главы: Нет
Премьера (мир): 13 июня 2009
Премьера (РФ): 22 октября 2009

Media Info

Video
ID                               : 1
Format                           : AVC
Format/Info                      : Advanced Video Codec
Format profile                   : [email protected]
Format settings, CABAC           : Yes
Format settings, ReFrames        : 4 frames
Muxing mode                      : Container [email protected]
Codec ID                         : V_MPEG4/ISO/AVC
Duration                         : 1h 33mn
Bit rate                         : 8 919 Kbps
Nominal bit rate                 : 9 167 Kbps
Width                            : 1 920 pixels
Height                           : 1 040 pixels
Display aspect ratio             : 16:9
Frame rate                       : 23.976 fps
Resolution                       : 8 bits
Colorimetry                      : 4:2:0
Scan type                        : Progressive
Bits/(Pixel*Frame)               : 0.186
Stream size                      : 5.80 GiB (73%)
Title                            : Release for HDCLUB
Writing library                  : x264 core 84 r1400M 20fa784
Encoding settings                : cabac=1 / ref=4 / deblock=1:-3:-3 / analyse=0x3:0x113 / me=umh / subme=9 / psy=1 / psy_rd=1.0:0.0 / mixed_ref=1 / me_range=32 / chroma_me=1 / trellis=2 / 8x8dct=1 / cqm=0 / deadzone=21,11 / fast_pskip=0 / chroma_qp_offset=-2 / threads=12 / sliced_threads=0 / nr=0 / decimate=0 / mbaff=0 / constrained_intra=0 / bframes=8 / b_pyramid=2 / b_adapt=2 / b_bias=0 / direct=3 / wpredb=1 / wpredp=2 / keyint=240 / keyint_min=24 / scenecut=40 / intra_refresh=0 / rc_lookahead=80 / rc=2pass / mbtree=1 / bitrate=9167 / ratetol=1.0 / qcomp=0.80 / qpmin=10 / qpmax=51 / qpstep=4 / cplxblur=20.0 / qblur=0.5 / vbv_maxrate=50000 / vbv_bufsize=62500 / ip_ratio=1.40 / aq=1:0.80 / pulldown=0 / nal_hrd=0
Language                         : English
Audio #1
ID                               : 2
Format                           : DTS
Format/Info                      : Digital Theater Systems
Codec ID                         : A_DTS
Duration                         : 1h 33mn
Bit rate mode                    : Constant
Bit rate                         : 1 510 Kbps
Channel(s)                       : 6 channels
Channel positions                : Front: L C R, Side: L R, LFE
Sampling rate                    : 48.0 KHz
Resolution                       : 24 bits
Stream size                      : 1 007 MiB (12%)
Title                            : DTS 5.1 @ 1536 kbps - Дублированный
Language                         : Russian
Audio #2
ID                               : 3
Format                           : DTS
Format/Info                      : Digital Theater Systems
Codec ID                         : A_DTS
Duration                         : 1h 33mn
Bit rate mode                    : Constant
Bit rate                         : 1 510 Kbps
Channel(s)                       : 6 channels
Channel positions                : Front: L C R, Side: L R, LFE
Sampling rate                    : 48.0 KHz
Resolution                       : 24 bits
Stream size                      : 1 007 MiB (12%)
Title                            : DTS 5.1 @ 1536 kbps
Language                         : English
Text #1
ID                               : 4
Format                           : UTF-8
Codec ID                         : S_TEXT/UTF8
Codec ID/Info                    : UTF-8 Plain Text
Language                         : Russian
Text #2
ID                               : 5
Format                           : UTF-8
Codec ID                         : S_TEXT/UTF8
Codec ID/Info                    : UTF-8 Plain Text
Language                         : English

Скриншоты



[Цитировать]

А есть чуть меньше? Хотя бы гигов 5...

[Цитировать]

RoMeO, Позже выложу 700 MB

[Цитировать]



Показать сообщения:    

Текущее время: 04-Дек 09:06

Часовой пояс: UTC + 3


Вы не можете начинать темы
Вы не можете отвечать на сообщения
Вы не можете редактировать свои сообщения
Вы не можете удалять свои сообщения
Вы не можете голосовать в опросах
Вы не можете прикреплять файлы к сообщениям
Вы не можете скачивать файлы

!ВНИМАНИЕ!
Сайт не предоставляет электронные версии произведений, а занимается лишь коллекционированием и каталогизацией ссылок, присылаемых и публикуемых на форуме нашими читателями. Если вы являетесь правообладателем какого-либо представленного материала и не желаете, чтобы ссылка на него находилась в нашем каталоге, свяжитесь с нами, и мы незамедлительно удалим ее. Файлы для обмена на трекере предоставлены пользователями сайта, и администрация не несет ответственности за их содержание. Просьба не заливать файлы, защищенные авторскими правами, а также файлы нелегального содержания!